Поиск

(Bossa Nova) VA - Chega De Saudade - Historia da Bossa Nova - 2000, FLAC (image+.cue), lossless

(Bossa Nova) VA - Chega De Saudade - Historia da Bossa Nova - 2000, FLAC (image+.cue), lossless
Треклист:
VA - Chega De Saudade - Historia da Bossa Nova (2 CD)
Жанр: Bossa Nova
Год выпуска диска: 2000
Производитель диска: France
Лэйбл: Iris #3004 093
Аудио кодек: FLAC
Тип рипа: image+.cue
Источник рипа: Собственный диск
Битрейт аудио: lossless
Сканы внутри
 
Трэклист CD1
1.01 - Wanda Sà & Roberto Menescal - Chega De Saudade
1.02 - Silvio César & Antonio Carlos Jobim - Medley Jobim
1.03 - Quarteto Em Cy - Agua De Beber
1.04 - Baden Powell - Canto De Ossanha
1.05 - Pedro Paulo Castro Neves & Michel Legrand - A Felicidade
1.06 - Joyce - Corcovado
1.07 - Claudia Telles - Discussao
1.08 - Quarteto Em Cy & MPB 4 - Mais Um Adeus
1.09 - Wanda Sà & Roberto Menescal - So Danço Samba, O Pato
1.10 - Rosinha De Valença - Valsa de Euridice
1.11 - BIA - O Barquinho
1.12 - Wanda Sà & Celia Vaz - Doralice
1.13 - Wanda Sà & Roberto Menescal - Telefone
1.14 - Joyce - Garota De Ipanema
 
лог CD1
Exact Audio Copy V0.99 prebeta 5 from 4. May 2009
Отчёт EAC об извлечении, выполненном 18. февраля 2010, 23:06
Various / Chega De Saudade - CD1
Дисковод: ASUS DRW-1608P3S Adapter: 0 ID: 0
Режим чтения : Достоверность
Использование точного потока : Да
Отключение кэша аудио : Да
Использование указателей C2 : Нет
Коррекция смещения при чтении : 48
Способность читать области Lead-in и Lead-out : Нет
Заполнение пропущенных сэмплов тишиной : Да
Удаление блоков с тишиной в начале и конце : Нет
При вычислениях CRC использовались нулевые сэмплы : Да
Интерфейс : Установленный внешний ASPI-интерфейс
Выходной формат : Внутренние WAV-операции
Формат сэмплов : 44.100 Гц; 16 бит; стерео
TOC извлечённого CD
Трек | Старт | Длительность | Начальный сектор | Конечный сектор
---------------------------------------------------------------------
1 | 0:00.00 | 3:59.73 | 0 | 17997
2 | 3:59.73 | 2:47.12 | 17998 | 30534
3 | 6:47.10 | 2:28.38 | 30535 | 41672
4 | 9:15.48 | 4:15.62 | 41673 | 60859
5 | 13:31.35 | 4:07.50 | 60860 | 79434
6 | 17:39.10 | 3:34.30 | 79435 | 95514
7 | 21:13.40 | 2:34.38 | 95515 | 107102
8 | 23:48.03 | 3:48.02 | 107103 | 124204
9 | 27:36.05 | 2:46.08 | 124205 | 136662
10 | 30:22.13 | 3:48.65 | 136663 | 153827
11 | 34:11.03 | 4:00.27 | 153828 | 171854
12 | 38:11.30 | 2:04.53 | 171855 | 181207
13 | 40:16.08 | 2:43.35 | 181208 | 193467
14 | 42:59.43 | 3:40.02 | 193468 | 209969
Характеристики диапазона извлечения и сообщения об ошибках
Выбранный диапазон
Имя файла C:\CD RIP\Various - Chega De Saudade - CD1\Various - Chega De Saudade - CD1.wav
Пиковый уровень 100.0 %
Качество диапазона 100.0 %
CRC теста 2A5C74C4
CRC копии 2A5C74C4
Копирование... OK
Ошибок не произошло
AccurateRip: сводка
Трек 1 точное извлечение (доверие 1) [ADAA79F1]
Трек 2 точное извлечение (доверие 1) [650BB355]
Трек 3 точное извлечение (доверие 1) [ACB89258]
Трек 4 точное извлечение (доверие 1) [ED511B11]
Трек 5 точное извлечение (доверие 1) [3F97E605]
Трек 6 точное извлечение (доверие 1) [2AC14C35]
Трек 7 точное извлечение (доверие 1) [E4577E5B]
Трек 8 точное извлечение (доверие 1) [C5B16819]
Трек 9 точное извлечение (доверие 1) [C08E3F37]
Трек 10 точное извлечение (доверие 1) [093F5063]
Трек 11 точное извлечение (доверие 1) [AB5B5D4B]
Трек 12 точное извлечение (доверие 1) [27CAC0DA]
Трек 13 точное извлечение (доверие 1) [8823E0F2]
Трек 14 точность не определена (достоверность 1) [6F5603C6], AccurateRip вернул [C4F17A8B]
13 трек(и) скопированы точно
1 трек(и) не удалось проверить на точность
Некоторые треки не прошли проверку на точность
Конец отчёта
 
Трэклист CD2
2.01 - Wanda Sà & Roberto Menescal - Wave
2.02 - Baden Powell - Samba Do Veloso
2.03 - Quarteto Em Cy & Chico Buarque - Carta Ao Tom 74
2.04 - Claudia Telles - Lobo Bobo
2.05 - BIA - Samba de Uma Nota So
2.06 - Wanda Sà & Roberto Menescal - Vocé
2.07 - Quarteto Em Cy - Samba De Orly
2.08 - Antonio Carlos Jobim & Miucha - Samba Do Aviao
2.09 - Wanda Sà & Roberto Menescal - Vagamente
2.10 - Antonio Carlos Jobim & Miucha - Pela Luz Dos Olhos Teus
2.11 - Maria Bethania - Anos Dourados
2.12 - BIA - Meditaçao
2.13 - Carlos Lyra & Quarteto Em Cy - Samba Do Carioca
2.14 - Nana Caymmi - Cançao Em Modo Menor
 
лог CD2
Exact Audio Copy V0.99 prebeta 5 from 4. May 2009
Отчёт EAC об извлечении, выполненном 19. февраля 2010, 0:24
Various / Chega de Saudade - CD2
Дисковод: ASUS DRW-1608P3S Adapter: 0 ID: 0
Режим чтения : Достоверность
Использование точного потока : Да
Отключение кэша аудио : Да
Использование указателей C2 : Нет
Коррекция смещения при чтении : 48
Способность читать области Lead-in и Lead-out : Нет
Заполнение пропущенных сэмплов тишиной : Да
Удаление блоков с тишиной в начале и конце : Нет
При вычислениях CRC использовались нулевые сэмплы : Да
Интерфейс : Установленный внешний ASPI-интерфейс
Выходной формат : Внутренние WAV-операции
Формат сэмплов : 44.100 Гц; 16 бит; стерео
TOC извлечённого CD
Трек | Старт | Длительность | Начальный сектор | Конечный сектор
---------------------------------------------------------------------
1 | 0:00.00 | 2:58.63 | 0 | 13412
2 | 2:58.63 | 4:42.21 | 13413 | 34583
3 | 7:41.09 | 2:24.23 | 34584 | 45406
4 | 10:05.32 | 3:37.06 | 45407 | 61687
5 | 13:42.38 | 3:02.13 | 61688 | 75350
6 | 16:44.51 | 2:20.74 | 75351 | 85924
7 | 19:05.50 | 2:08.53 | 85925 | 95577
8 | 21:14.28 | 2:52.57 | 95578 | 108534
9 | 24:07.10 | 5:37.08 | 108535 | 133817
10 | 29:44.18 | 2:46.12 | 133818 | 146279
11 | 32:30.30 | 3:16.54 | 146280 | 161033
12 | 35:47.09 | 2:59.02 | 161034 | 174460
13 | 38:46.11 | 2:40.33 | 174461 | 186493
14 | 41:26.44 | 2:16.27 | 186494 | 196720
Характеристики диапазона извлечения и сообщения об ошибках
Выбранный диапазон
Имя файла C:\CD RIP\Various - Chega de Saudade - CD2\Various - Chega de Saudade - CD2.wav
Пиковый уровень 100.0 %
Качество диапазона 99.9 %
CRC теста 8BD0C510
CRC копии 8BD0C510
Копирование... OK
Ошибок не произошло
AccurateRip: сводка
Трек 1 точность не определена (достоверность 3) [AA22F225], AccurateRip вернул [7DA1F2C5]
Трек 2 точность не определена (достоверность 3) [517D538B], AccurateRip вернул [83E14C7B]
Трек 3 точность не определена (достоверность 3) [A6756C41], AccurateRip вернул [EC6DA609]
Трек 4 точность не определена (достоверность 3) [2570A0EC], AccurateRip вернул [31EF956C]
Трек 5 точность не определена (достоверность 3) [2AA39A6F], AccurateRip вернул [CE9BE74F]
Трек 6 точность не определена (достоверность 3) [3688C32E], AccurateRip вернул [BD5B3056]
Трек 7 точность не определена (достоверность 3) [19ADEFF8], AccurateRip вернул [1C1CD6F8]
Трек 8 точность не определена (достоверность 3) [C96C07A7], AccurateRip вернул [218DC3DF]
Трек 9 точность не определена (достоверность 3) [9EA462E4], AccurateRip вернул [3C90A3C4]
Трек 10 точность не определена (достоверность 3) [2372FEC4], AccurateRip вернул [C60B17C4]
Трек 11 точность не определена (достоверность 3) [68313BFB], AccurateRip вернул [92E9103B]
Трек 12 точность не определена (достоверность 3) [DC76BB97], AccurateRip вернул [3A1BD237]
Трек 13 точность не определена (достоверность 3) [91D4D161], AccurateRip вернул [4F2DFB09]
Трек 14 точность не определена (достоверность 3) [19E6D22D], AccurateRip вернул [4425F9C1]
Ни один трек не прошёл проверки на точность
В вашей базе может быть иной вариант штамповки диска
Конец отчёта
Download available for power users only.
11:30
239
Нет комментариев. Ваш будет первым!