Поиск

(Bossa Nova, Samba) Sergio Mendes & Brasil 66 - Ye-Me-Le (1969), FLAC (tracks+.cue) lossless

Треклист:
Sergio Mendes & Brasil 66 - Ye-Me-Le (1969)
Жанр: Bossa Nova, Samba
Страна исполнителя:
Дата записи: 1969
Год издания оригинала: 1969, Universal/A&M
Год переиздания: 2006
Страна - производитель диска:
Издатель (лейбл): Verve
Номер по каталогу: SP 4236 0602517052475
Аудио кодек: FLAC (*.flac)
Тип рипа: (tracks + .cue)
Корректность рипа: EAC ripped, correct read offset, test and copy
Битрейт аудио: lossless
Наличие сканов в содержимом раздачи: full scans
Продолжительность: 31:19
Источник (релизер): torrent, ROB
Трэклист:
1.: Wichita Lineman
2.: Norwegian Wood
3.: Some Time Ago
4.: Moanin'
5.: Look Who's Mine
6.: Ye Me Le
7.: Easy To Be Hard
8.: Where Are You Coming From
9.: Masquerade
10.: What The World Needs Now
Состав:
Rubens Bassini - Percussion
Oscar Castro-Neves - Guitar
Dave Grusin - Conductor, Orchestral Arrangements
Lani Hall - Vocals
Sergio Mendes - Arranger, Keyboards, Original Recording Producer, Piano, Producer, Vocals
Sebastian Neto - Bass
Karen Philipp - Vocals
Dom Um Romão - Drums, Percussion
Рейтинг:
1970 Billboard Jazz Albums #5
1970 The Billboard 200 #71
Издания:
1969 Ye-Me-Le [33 rpm] United States Vinyl LP A&M SP 4236
1969 LP Verve 0007427
1996 CD A&M
2002 CD Japanese Import 3706
2003 CD Universal International 3706
2006 CD Universal/A&M 93150
2006 CD A&M 1705247
2006 CD Verve 0007427
2008 CD Universal Distribution 3082
2006 CD [Remastered] Verve B0007427-02
 
Review by Richard S. Ginell
Perhaps the Sergio Mendes & Brasil '66 sound was at last beginning to show signs of wear, for not only didn't Ye-Me-Le produce any hits ("Wichita Lineman" reached a lowly number 95), but the album is also less enterprising and fresh-sounding than its predecessors. There is a surprising shortage of Brazilian material, which was always Mendes' most valuable contribution in the long run, and more reliance upon routine covers of pop/rock standards like "Easy to Be Hard" and "What the World Needs Now." But there are special moments, like the hypnotic "Masquerade" (no relation to the Leon Russell/George Benson hit), Sergio Mihanovich's haunting "Some Time Ago," and another winning treatment of a Beatles tune, "Norwegian Wood," where Mendes cuts loose a killer solo on electric piano (believe it or not, the 45 rpm single version features more of that solo than the LP).
 
Содержание индексной карты (.CUE):
REM GENRE Latin
REM DATE 1969
REM DISCID 7507570A
REM COMMENT "ExactAudioCopy v0.95b4"
CATALOG 0602517052475
PERFORMER "Sergio Mendes & Brasil 66"
TITLE "Ye-Me-Le"
FILE "01 - Witchita Lineman.wav" WAVE
TRACK 01 AUDIO
TITLE "Witchita Lineman"
PERFORMER "Sergio Mendes & Brasil 66"
ISRC USAM16974748
FLAGS DCP
INDEX 01 00:00:00
TRACK 02 AUDIO
TITLE "Norwegian Wood"
PERFORMER "Sergio Mendes & Brasil 66"
ISRC USWWW0130147
FLAGS DCP
INDEX 00 02:47:35
FILE "02 - Norwegian Wood.wav" WAVE
INDEX 01 00:00:00
TRACK 03 AUDIO
TITLE "Some Time Ago"
PERFORMER "Sergio Mendes & Brasil 66"
ISRC USAM16974753
FLAGS DCP
INDEX 00 03:54:31
FILE "03 - Some Time Ago.wav" WAVE
INDEX 01 00:00:00
TRACK 04 AUDIO
TITLE "Moanin'"
PERFORMER "Sergio Mendes & Brasil 66"
ISRC USAM16974757
FLAGS DCP
INDEX 00 02:23:12
FILE "04 - Moanin'.wav" WAVE
INDEX 01 00:00:00
TRACK 05 AUDIO
TITLE "Look Who's Mine"
PERFORMER "Sergio Mendes & Brasil 66"
ISRC USAM16900855
FLAGS DCP
INDEX 00 03:04:48
FILE "05 - Look Who's Mine.wav" WAVE
INDEX 01 00:00:00
TRACK 06 AUDIO
TITLE "Ye-Me-Le"
PERFORMER "Sergio Mendes & Brasil 66"
ISRC USAM16974759
FLAGS DCP
INDEX 00 03:33:53
FILE "06 - Ye-Me-Le.wav" WAVE
INDEX 01 00:00:00
TRACK 07 AUDIO
TITLE "Easy To Be Hard"
PERFORMER "Sergio Mendes & Brasil 66"
ISRC USAM16974751
FLAGS DCP
INDEX 00 02:27:41
FILE "07 - Easy To Be Hard.wav" WAVE
INDEX 01 00:00:00
TRACK 08 AUDIO
TITLE "Where Are You Coming From"
PERFORMER "Sergio Mendes & Brasil 66"
ISRC USAM16974764
FLAGS DCP
INDEX 00 02:45:28
FILE "08 - Where Are You Coming From.wav" WAVE
INDEX 01 00:00:00
TRACK 09 AUDIO
TITLE "Masquerade"
PERFORMER "Sergio Mendes & Brasil 66"
ISRC USAM16974754
FLAGS DCP
INDEX 00 04:05:31
FILE "09 - Masquerade.wav" WAVE
INDEX 01 00:00:00
TRACK 10 AUDIO
TITLE "What The World Needs Now"
PERFORMER "Sergio Mendes & Brasil 66"
ISRC USAM16974762
FLAGS DCP
INDEX 00 03:37:70
FILE "10 - What The World Needs Now.wav" WAVE
INDEX 01 00:00:00
 
Лог создания рипа
EAC extraction logfile from 5. November 2007, 11:48 for CD
Sergio Mendes & Brasil 66 / Ye-Me-Le
Used drive : HL-DT-STDVD-ROM GDR8162B Adapter: 1 ID: 1
Read mode : Secure with NO C2, accurate stream, disable cache
Read offset correction : 102
Overread into Lead-In and Lead-Out : No
Used output format : C:\Programmi\Eac\flac.exe (User Defined Encoder)
32 kBit/s
Additional command line options : -8 -V -T "artist=%a" -T "title=%t" -T "album=%g" -T "date=%y" -T "tracknumber=%n" -T "genre=%m" -T "comment=Exact Audio Copy 0.95b4, Flac 1.1.4.a -8" %s
Other options :
Fill up missing offset samples with silence : Yes
Delete leading and trailing silent blocks : No
Installed external ASPI interface
Track 1
Filename C:\EAC\Sergio Mendes & Brasil 66 - Ye-Me-Le (1969) [FLAC]\01 - Witchita Lineman.wav
Pre-gap length 0:00:02.00
Peak level 92.7 %
Track quality 100.0 %
Test CRC 49166C16
Copy CRC 49166C16
Copy OK
Track 2
Filename C:\EAC\Sergio Mendes & Brasil 66 - Ye-Me-Le (1969) [FLAC]\02 - Norwegian Wood.wav
Pre-gap length 0:00:02.30
Peak level 98.2 %
Track quality 100.0 %
Test CRC 67584BBE
Copy CRC 67584BBE
Copy OK
Track 3
Filename C:\EAC\Sergio Mendes & Brasil 66 - Ye-Me-Le (1969) [FLAC]\03 - Some Time Ago.wav
Pre-gap length 0:00:02.37
Peak level 85.1 %
Track quality 100.0 %
Test CRC 6601C2D8
Copy CRC 6601C2D8
Copy OK
Track 4
Filename C:\EAC\Sergio Mendes & Brasil 66 - Ye-Me-Le (1969) [FLAC]\04 - Moanin'.wav
Pre-gap length 0:00:02.34
Peak level 90.2 %
Track quality 100.0 %
Test CRC D967228E
Copy CRC D967228E
Copy OK
Track 5
Filename C:\EAC\Sergio Mendes & Brasil 66 - Ye-Me-Le (1969) [FLAC]\05 - Look Who's Mine.wav
Pre-gap length 0:00:02.13
Peak level 88.6 %
Track quality 100.0 %
Test CRC 9DF1041A
Copy CRC 9DF1041A
Copy OK
Track 6
Filename C:\EAC\Sergio Mendes & Brasil 66 - Ye-Me-Le (1969) [FLAC]\06 - Ye-Me-Le.wav
Pre-gap length 0:00:01.96
Peak level 98.7 %
Track quality 100.0 %
Test CRC B2EF9E99
Copy CRC B2EF9E99
Copy OK
Track 7
Filename C:\EAC\Sergio Mendes & Brasil 66 - Ye-Me-Le (1969) [FLAC]\07 - Easy To Be Hard.wav
Pre-gap length 0:00:02.42
Peak level 94.1 %
Track quality 100.0 %
Test CRC A1F9542B
Copy CRC A1F9542B
Copy OK
Track 8
Filename C:\EAC\Sergio Mendes & Brasil 66 - Ye-Me-Le (1969) [FLAC]\08 - Where Are You Coming From.wav
Pre-gap length 0:00:03.76
Peak level 99.0 %
Track quality 100.0 %
Test CRC EE68B2E7
Copy CRC EE68B2E7
Copy OK
Track 9
Filename C:\EAC\Sergio Mendes & Brasil 66 - Ye-Me-Le (1969) [FLAC]\09 - Masquerade.wav
Pre-gap length 0:00:02.40
Peak level 93.6 %
Track quality 100.0 %
Test CRC E56869E0
Copy CRC E56869E0
Copy OK
Track 10
Filename C:\EAC\Sergio Mendes & Brasil 66 - Ye-Me-Le (1969) [FLAC]\10 - What The World Needs Now.wav
Pre-gap length 0:00:02.37
Peak level 97.7 %
Track quality 100.0 %
Test CRC 98103306
Copy CRC 98103306
Copy OK
No errors occured
End of status report
 
Лог проверки качества
3141079916 29948060 01 - Witchita Lineman.wav
895742766 41769212 02 - Norwegian Wood.wav
3176101881 25667420 03 - Some Time Ago.wav
1506341892 32946860 04 - Moanin'.wav
3239463236 38043644 05 - Look Who's Mine.wav
1351498004 26455340 06 - Ye-Me-Le.wav
2835532530 29835164 07 - Easy To Be Hard.wav
1912551384 43714316 08 - Where Are You Coming From.wav
497874731 38862140 09 - Masquerade.wav
1862935245 24263276 10 - What The World Needs Now.wav
auCDtect: CD records authenticity detector, version 0.8.2
Copyright (c) 2004 Oleg Berngardt. All rights reserved.
Copyright (c) 2004 Alexander Djourik. All rights reserved.
------------------------------------------------------------
Processing file: [01 - Witchita Lineman.wav]
------------------------------------------------------------
This track looks like CDDA with probability 100%
------------------------------------------------------------
Processing file: [02 - Norwegian Wood.wav]
------------------------------------------------------------
This track looks like CDDA with probability 100%
------------------------------------------------------------
Processing file: [03 - Some Time Ago.wav]
------------------------------------------------------------
This track looks like CDDA with probability 100%
------------------------------------------------------------
Processing file: [04 - Moanin'.wav]
------------------------------------------------------------
This track looks like CDDA with probability 100%
------------------------------------------------------------
Processing file: [05 - Look Who's Mine.wav]
------------------------------------------------------------
This track looks like CDDA with probability 100%
------------------------------------------------------------
Processing file: [06 - Ye-Me-Le.wav]
------------------------------------------------------------
This track looks like CDDA with probability 100%
------------------------------------------------------------
Processing file: [07 - Easy To Be Hard.wav]
------------------------------------------------------------
This track looks like CDDA with probability 100%
------------------------------------------------------------
Processing file: [08 - Where Are You Coming From.wav]
------------------------------------------------------------
This track looks like CDDA with probability 99%
------------------------------------------------------------
Processing file: [09 - Masquerade.wav]
------------------------------------------------------------
This track looks like CDDA with probability 99%
------------------------------------------------------------
Processing file: [10 - What The World Needs Now.wav]
------------------------------------------------------------
This track looks like CDDA with probability 100%
------------------------------------------------------------
Final Conclusion:
------------------------------------------------------------
These tracks looks like CDDA with probability 100%
Я не сидирую все свои раздачи подолгу, только новые (до 3х первых сидов)
За своими раздачами не слежу, и старые топики не читаю - если нет сидов или раздача находится в архиве, пришлите письмо, и я вернусь
Предлагаю скачавшим максимально долго оставаться на раздаче - весь рейтинг будет ваш.
Заботьтесь о своем рейтинге - конвертируйте в мп3 и выкладывайте в соответствующем разделе
19:14
454
Нет комментариев. Ваш будет первым!