Поиск

(Bossa Nova) Sakai - Gradation ~ Bossa Nova No Kaze - 2011, FLAC (image+.cue), lossless

(Bossa Nova) Sakai - Gradation ~ Bossa Nova No Kaze - 2011, FLAC (image+.cue), lossless
Треклист:
Sakai
Gradation
Bossa Nova No Kaze

Жанр: Bossa Nova
Страна-производитель диска: USA
Год издания диска: 2011
Издатель (лейбл): Sakai Music
Номер по каталогу: SPCJ-0003
Аудиокодек: FLAC (*.flac)
Тип рипа: image+.cue
Битрейт аудио: lossless
Продолжительность: 49:07
Источник (релизер): ©СЁРФ-Маrаtones aka izia1956
Наличие сканов в содержимом раздачи: да


01. Gura To Baku (4:19)
02. Natsu No Omide (5:27)
03. Esperanza (5:27)
04. Bossa Nova No Kaze (4:34)
05. Oka Wo Noboreba (3:09)
06. Manhattan Rain (5:19)
07. Nemuri (4:01)
08. Tsuki No Shizuku (5:41)
09. Suiren No Sakukoro (5:32)
10. Atarashii Tsubasa (5:33)

 
Лог создания рипа
Exact Audio Copy V0.99 prebeta 4 from 23. January 2008
Отчёт EAC об извлечении, выполненном 8. октября 2011, 9:11
Sakai / Gradation~Bossa Nova No Kaze
Дисковод: PLEXTOR DVDR PX-880SA Adapter: 1 ID: 1
Режим чтения : Достоверность
Использование точного потока : Да
Отключение кэша аудио : Да
Использование указателей C2 : Нет
Коррекция смещения при чтении : 6
Способность читать области Lead-in и Lead-out : Нет
Заполнение пропущенных сэмплов тишиной : Да
Удаление блоков с тишиной в начале и конце : Нет
При вычислениях CRC использовались нулевые сэмплы : Да
Интерфейс : Встроенный Win32-интерфейс для Win NT/2000
Выходной формат : Пользовательский кодировщик
Выбранный битрейт : 1024 kBit/s
Качество : Высокий
Добавление ID3-тэга : Нет
Утилита сжатия : C:\Program Files\Exact Audio Copy\FLAC\FLAC.EXE
Дополнительные параметры : -6 -V -T "ARTIST=%a" -T "TITLE=%t" -T "ALBUM=%g" -T "DATE=%y" -T "TRACKNUMBER=%n" -T "GENRE=%m" -T "COMMENT=%e" %s -o %d
TOC извлечённого CD
Трек | Старт | Длительность | Начальный сектор | Конечный сектор
---------------------------------------------------------------------
1 | 0:00.00 | 4:19.44 | 0 | 19468
2 | 4:19.44 | 5:27.43 | 19469 | 44036
3 | 9:47.12 | 5:27.35 | 44037 | 68596
4 | 15:14.47 | 4:34.09 | 68597 | 89155
5 | 19:48.56 | 3:09.45 | 89156 | 103375
6 | 22:58.26 | 5:19.52 | 103376 | 127352
7 | 28:18.03 | 4:01.31 | 127353 | 145458
8 | 32:19.34 | 5:41.45 | 145459 | 171078
9 | 38:01.04 | 5:32.49 | 171079 | 196027
10 | 43:33.53 | 5:33.40 | 196028 | 221042
Характеристики диапазона извлечения и сообщения об ошибках
Выбранный диапазон
Имя файла J:\BitComet\Sakai - Gradation~Bossa Nova No Kaze(2011)(flac)\Sakai - Gradation~Bossa Nova No Kaze.wav
Пиковый уровень 100.0 %
Качество диапазона 100.0 %
CRC теста 9B5C134C
CRC копии 9B5C134C
Копирование... OK
Ошибок не произошло
AccurateRip: сводка
Трек 1 нет в базе данных
Трек 2 нет в базе данных
Трек 3 нет в базе данных
Трек 4 нет в базе данных
Трек 5 нет в базе данных
Трек 6 нет в базе данных
Трек 7 нет в базе данных
Трек 8 нет в базе данных
Трек 9 нет в базе данных
Трек 10 нет в базе данных
Ни одного трека нет в базе AccurateRip
Конец отчёта
 
Содержание индексной карты (.CUE)
REM GENRE "Bossa Nova"
REM DATE 2011
REM DISCID 7C0B830A
REM COMMENT "ExactAudioCopy v0.99pb4"
PERFORMER "Sakai"
TITLE "Gradation~Bossa Nova No Kaze"
FILE "Sakai - Gradation~Bossa Nova No Kaze.flac" WAVE
TRACK 01 AUDIO
TITLE "Gura To Baku"
PERFORMER "Sakai"
FLAGS DCP
INDEX 01 00:00:00
TRACK 02 AUDIO
TITLE "Natsu No Omide"
PERFORMER "Sakai"
FLAGS DCP
INDEX 01 04:19:44
TRACK 03 AUDIO
TITLE "Esperanza"
PERFORMER "Sakai"
FLAGS DCP
INDEX 01 09:47:12
TRACK 04 AUDIO
TITLE "Bossa Nova No Kaze"
PERFORMER "Sakai"
FLAGS DCP
INDEX 01 15:14:47
TRACK 05 AUDIO
TITLE "Oka Wo Noboreba"
PERFORMER "Sakai"
FLAGS DCP
INDEX 01 19:48:56
TRACK 06 AUDIO
TITLE "Manhattan Rain"
PERFORMER "Sakai"
FLAGS DCP
INDEX 01 22:58:26
TRACK 07 AUDIO
TITLE "Nemuri"
PERFORMER "Sakai"
FLAGS DCP
INDEX 01 28:18:03
TRACK 08 AUDIO
TITLE "Tsuki No Shizuku"
PERFORMER "Sakai"
FLAGS DCP
INDEX 01 32:19:34
TRACK 09 AUDIO
TITLE "Suiren No Sakukoro"
PERFORMER "Sakai"
FLAGS DCP
INDEX 01 38:01:04
TRACK 10 AUDIO
TITLE "Atarashii Tsubasa"
PERFORMER "Sakai"
FLAGS DCP
INDEX 01 43:33:53
 
Об исполнителе (группе)
Sakai was born in Shizuoka Japan in 1966. He started playing guitar as a professional guitarist in Tokyo in 1989. He had been playing various music as Jazz, Blues, Pop, Latin, Brazilian, Folk, Rock etc. in Tokyo area. He moved to New York City in 1995. He’s active and he performs Bossa Nova mainly at many different places in New York. He’s been writing original songs and Oda Yuichiro produced his first album.Yuichiro Oda is one of grate composer in Japan.His songs were spread by Seiko Matuda ,Anri,Hidemi Isikawa Toshihiko Tahara etc.
Gradation~bossa bova no kaze is the first album of male Japanease bossa nova artist “SAKAI” from New York.His sound expresses the essence of brazillian music,but also shows another side of influenced by 70’s and 80’s Japanease pops and american music as Jazz ,Blues Rock.
Доп. информация: Рип сделан собственноручно.
Сканы в папке.
Рип от ©СЁРФ-Маrаtones aka izia1956
00:26
309
Нет комментариев. Ваш будет первым!