Поиск

(Bossa Nova, MPB) [CD] Agustin Pereyra Lucena - Climas - 1973 (2003 Japan Edition), FLAC (tracks+.cue), lossless

(Bossa Nova, MPB) [CD] Agustin Pereyra Lucena - Climas - 1973 (2003 Japan Edition), FLAC (tracks+.cue), lossless
Agustin Pereyra Lucena - Climas
Жанр: Bossa Nova, MPB
Носитель: CD
Страна-производитель диска (релиза): Япония
Год издания: 2003
Издатель (лейбл): Victor Entertainment
Номер по каталогу: VICP-62187
Страна исполнителя (группы): Аргентина
Аудиокодек: FLAC (*.flac)
Тип рипа: tracks+.cue
Битрейт аудио: lossless
Продолжительность: 38:25
Источник (релизер): wikieup
Наличие сканов в содержимом раздачи: нет
Треклист:
01. Para que chorar (Powell-De Moraes) - 3:05
02. Andorinha (Jobim) - 3:55
03. Quem diz que sabe (Donato) - 4:37
04. Te quiero... dijiste (Grever) - 1:11
05. Pao de Deus (Do Pinho) - 2:30
06. Algo de mi (Pereyra Lucena) - 4:42
07. Verano del 42 (Legrand) - 5:04
08. Tomara (Toquinho-De Moraes) - 2:53
09. Encuentro casual (Pereyra Lucena-Reuter) - 3:37
10. Pra dizer adeus (Lobo) - 2:38
11. Espontaneo (Pereyra Lucena) - 4:13
 
Лог создания рипа
Exact Audio Copy V1.0 beta 3 from 29. August 2011
EAC extraction logfile from 11. July 2016, 8:07
Agustin Pereyra Lucena / Climas [2003 Reissue]
Used drive : TSSTcorpDVD-ROM TS-U333B Adapter: 0 ID: 1
Read mode : Secure
Utilize accurate stream : Yes
Defeat audio cache : Yes
Make use of C2 pointers : No
Read offset correction : 6
Overread into Lead-In and Lead-Out : No
Fill up missing offset samples with silence : Yes
Delete leading and trailing silent blocks : No
Null samples used in CRC calculations : Yes
Used interface : Native Win32 interface for Win NT & 2000
Gap handling : Appended to previous track
Used output format : User Defined Encoder
Selected bitrate : 1024 kBit/s
Quality : High
Add ID3 tag : No
Command line compressor : C:\Program Files\Exact Audio Copy\Flac\flac.exe
Additional command line options : -8 -V -T "ARTIST=%artist%" -T "TITLE=%title%" -T "ALBUM=%albumtitle%" -T "DATE=%year%" -T "TRACKNUMBER=%tracknr%" -T "GENRE=%genre%" -T "PERFORMER=%albuminterpret%" -T "COMPOSER=%composer%" %haslyrics%--tag-from-file=LYRICS="%lyricsfile%"%haslyrics% -T "ALBUMARTIST=%albumartist%" -T "DISCNUMBER=%cdnumber%" -T "TOTALDISCS=%totalcds%" -T "TOTALTRACKS=%numtracks%" -T "COMMENT=%comment%" %source% -o %dest%
TOC of the extracted CD
Track | Start | Length | Start sector | End sector
---------------------------------------------------------
1 | 0:00.00 | 3:04.58 | 0 | 13857
2 | 3:04.58 | 3:55.05 | 13858 | 31487
3 | 6:59.63 | 4:37.15 | 31488 | 52277
4 | 11:37.03 | 1:11.07 | 52278 | 57609
5 | 12:48.10 | 2:29.48 | 57610 | 68832
6 | 15:17.58 | 4:42.15 | 68833 | 89997
7 | 19:59.73 | 5:04.35 | 89998 | 112832
8 | 25:04.33 | 2:52.62 | 112833 | 125794
9 | 27:57.20 | 3:37.05 | 125795 | 142074
10 | 31:34.25 | 2:37.58 | 142075 | 153907
11 | 34:12.08 | 4:13.07 | 153908 | 172889
Track 1
Filename C:\EAC Rips\01 - Para Que Chorar.wav
Pre-gap length 0:00:02.00
Peak level 91.6 %
Extraction speed 2.5 X
Track quality 100.0 %
Test CRC 85046254
Copy CRC 85046254
Track not present in AccurateRip database
Copy OK
Track 2
Filename C:\EAC Rips\02 - Andorinha.wav
Pre-gap length 0:00:02.45
Peak level 100.0 %
Extraction speed 2.2 X
Track quality 99.9 %
Test CRC C638C2FA
Copy CRC C638C2FA
Track not present in AccurateRip database
Copy OK
Track 3
Filename C:\EAC Rips\03 - Quem Diz Que Sabe.wav
Pre-gap length 0:00:02.45
Peak level 100.0 %
Extraction speed 2.6 X
Track quality 99.9 %
Test CRC 3BFB0E6A
Copy CRC 3BFB0E6A
Track not present in AccurateRip database
Copy OK
Track 4
Filename C:\EAC Rips\04 - Te Quiero... Dijiste.wav
Pre-gap length 0:00:02.45
Peak level 58.1 %
Extraction speed 2.4 X
Track quality 100.0 %
Test CRC 03224527
Copy CRC 03224527
Track not present in AccurateRip database
Copy OK
Track 5
Filename C:\EAC Rips\05 - Pao de Deus.wav
Pre-gap length 0:00:02.45
Peak level 99.9 %
Extraction speed 3.0 X
Track quality 100.0 %
Test CRC 7719329B
Copy CRC 7719329B
Track not present in AccurateRip database
Copy OK
Track 6
Filename C:\EAC Rips\06 - Algo De Mi.wav
Pre-gap length 0:00:02.45
Peak level 89.9 %
Extraction speed 3.0 X
Track quality 99.9 %
Test CRC FBBAA070
Copy CRC FBBAA070
Track not present in AccurateRip database
Copy OK
Track 7
Filename C:\EAC Rips\07 - Verano del 42.wav
Pre-gap length 0:00:02.45
Peak level 81.5 %
Extraction speed 3.2 X
Track quality 99.9 %
Test CRC 11A7E948
Copy CRC 11A7E948
Track not present in AccurateRip database
Copy OK
Track 8
Filename C:\EAC Rips\08 - Tomara.wav
Pre-gap length 0:00:02.45
Peak level 100.0 %
Extraction speed 3.7 X
Track quality 100.0 %
Test CRC 9451655C
Copy CRC 9451655C
Track not present in AccurateRip database
Copy OK
Track 9
Filename C:\EAC Rips\09 - Encuentro Casual.wav
Pre-gap length 0:00:02.45
Peak level 86.8 %
Extraction speed 3.9 X
Track quality 100.0 %
Test CRC 87F11D44
Copy CRC 87F11D44
Track not present in AccurateRip database
Copy OK
Track 10
Filename C:\EAC Rips\10 - Pra Dizer Adeus.wav
Pre-gap length 0:00:02.45
Peak level 90.5 %
Extraction speed 3.8 X
Track quality 100.0 %
Test CRC CCE5CBC8
Copy CRC CCE5CBC8
Track not present in AccurateRip database
Copy OK
Track 11
Filename C:\EAC Rips\11 - Espontaneo.wav
Pre-gap length 0:00:02.45
Peak level 80.6 %
Extraction speed 4.2 X
Track quality 100.0 %
Test CRC 64054772
Copy CRC 64054772
Track not present in AccurateRip database
Copy OK
None of the tracks are present in the AccurateRip database
No errors occurred
End of status report
==== Log checksum E67C9285040D9FC93C23B70F4B658E730A6293A9DD89D24B91C1AA04F7B7AEDA ====
 
Содержание индексной карты (.CUE)
REM GENRE Jazz
REM DATE 1973
REM DISCID 9B09010B
REM COMMENT "ExactAudioCopy v1.0b3"
PERFORMER "Agustin Pereyra Lucena"
TITLE "Climas"
FILE "01 - Para que chorar.wav" WAVE
TRACK 01 AUDIO
TITLE "Para que chorar"
PERFORMER "Agustin Pereyra Lucena"
INDEX 01 00:00:00
TRACK 02 AUDIO
TITLE "Andorinha"
PERFORMER "Agustin Pereyra Lucena"
INDEX 00 03:02:24
FILE "02 - Andorinha.wav" WAVE
INDEX 01 00:00:00
TRACK 03 AUDIO
TITLE "Quem diz que sabe"
PERFORMER "Agustin Pereyra Lucena"
INDEX 00 03:52:46
FILE "03 - Quem diz que sabe.wav" WAVE
INDEX 01 00:00:00
TRACK 04 AUDIO
TITLE "Te quiero... dijiste"
PERFORMER "Agustin Pereyra Lucena"
INDEX 00 04:34:56
FILE "04 - Te quiero... dijiste.wav" WAVE
INDEX 01 00:00:00
TRACK 05 AUDIO
TITLE "Pao de Deus"
PERFORMER "Agustin Pereyra Lucena"
INDEX 00 01:08:48
FILE "05 - Pao de Deus.wav" WAVE
INDEX 01 00:00:00
TRACK 06 AUDIO
TITLE "Algo de mi"
PERFORMER "Agustin Pereyra Lucena"
INDEX 00 02:27:14
FILE "06 - Algo de mi.wav" WAVE
INDEX 01 00:00:00
TRACK 07 AUDIO
TITLE "Verano del 42"
PERFORMER "Agustin Pereyra Lucena"
INDEX 00 04:39:56
FILE "07 - Verano del 42.wav" WAVE
INDEX 01 00:00:00
TRACK 08 AUDIO
TITLE "Tomara"
PERFORMER "Agustin Pereyra Lucena"
INDEX 00 05:02:01
FILE "08 - Tomara.wav" WAVE
INDEX 01 00:00:00
TRACK 09 AUDIO
TITLE "Encuentro casual"
PERFORMER "Agustin Pereyra Lucena"
INDEX 00 02:50:28
FILE "09 - Encuentro casual.wav" WAVE
INDEX 01 00:00:00
TRACK 10 AUDIO
TITLE "Pra dizer adeus"
PERFORMER "Agustin Pereyra Lucena"
INDEX 00 03:34:46
FILE "10 - Pra dizer adeus.wav" WAVE
INDEX 01 00:00:00
TRACK 11 AUDIO
TITLE "Espontaneo"
PERFORMER "Agustin Pereyra Lucena"
INDEX 00 02:35:24
FILE "11 - Espontaneo.wav" WAVE
INDEX 01 00:00:00
 
Отчет CUETools
[CUETools log; Date: 08.02.2017 22:16:13; Version: 2.1.5]
[CTDB TOCID: 3A6rmIBafxX0vV5VOVh6L5ZVEDY-] found.
Track | CTDB Status
1 | (2/2) Accurately ripped
2 | (2/2) Accurately ripped
3 | (2/2) Accurately ripped
4 | (2/2) Accurately ripped
5 | (2/2) Accurately ripped
6 | (2/2) Accurately ripped
7 | (2/2) Accurately ripped
8 | (2/2) Accurately ripped
9 | (2/2) Accurately ripped
10 | (2/2) Accurately ripped
11 | (2/2) Accurately ripped
[AccurateRip ID: 000f967e-0087953c-9b09010b] disk not present in database.
Track Peak [ CRC32 ] [W/O NULL] [ LOG ]
-- 99,9 [169E1AF0] [A357EBE5]
01 91,6 [85046254] [2FA76934] CRC32
02 99,9 [C638C2FA] [8ABFF7CD] CRC32
03 99,9 [3BFB0E6A] [85EF56F3] CRC32
04 58,1 [03224527] [4352FA5A] CRC32
05 99,9 [7719329B] [CBE34CE2] CRC32
06 89,9 [FBBAA070] [2C9E3274] CRC32
07 81,5 [11A7E948] [81E25B37] CRC32
08 99,9 [9451655C] [8B145095] CRC32
09 86,8 [87F11D44] [311C4FCD] CRC32
10 90,5 [CCE5CBC8] [A5E25558] CRC32
11 80,6 [64054772] [97FD867B] CRC32
 
Об альбоме (сборнике)
"Creo que CLIMAS es uno de mis discos más íntimos. Para el repertorio, busqué melodías (propias o ajenas) que me llegaran profundamente. Creo que se respira una atmósfera llena de nostalgia en un "clima" de amigos músicos que sienten parecido y que lejos de querer lucirse, intentan y logran comunicar lo que no puede expresarse con palabras.
También fue la primera vez que grabé los temas que estaba componiendo junto a Guillermo Reuter (uno de ellos: "Encuentro Casual" luego tuvo dos versiones: por las cantantes Helena Uriburu y Adriana Ríos).
Conté con la participación de grandes músicos y sinceramente con mis 24 años me sentí muy halagado por el hecho de que participaran en este disco. Aún hoy sigo en contacto con muchos de ellos y seguimos recorriendo juntos este camino tan placentero que es hacer música..."
Agustín Pereyra Lucena (Octubre de 2002)
 
Состав
Agustin Pereyra Lucena - guitar
Paulinho do Pinho - accompanying guitar
Guillermo Reuter - piano, accompanying guitar
Franklin Correa (Franklin da flauta) - flute
Mario "Mojarra" Fernandez - electric bass (Baby Bass)
Oscar Alem - double bass
Carlos Carli - drums, percussion
Jorge Padin - drums
Banana, Carlos Guanair and Esnai - percussion
Paulinho do Pinho - string arrangement
Recorded at TNT Studios, Buenos Aires in 1973.
23:23
307
Нет комментариев. Ваш будет первым!