Поиск

(Bossa Nova, Latin Jazz) VA - Why Not Samba - Hot Coctail Of Tropical Grooves From Cold War Poland - 2008, FLAC (tracks+.cue), lossless

(Bossa Nova, Latin Jazz) VA - Why Not Samba - Hot Coctail Of Tropical Grooves From Cold War Poland - 2008, FLAC (tracks+.cue), lossless
Треклист:
Why Not Samba - Hot Coctail Of Tropical Grooves From Cold War Poland
Жанр: Bossa Nova, Latin Jazz
Страна-производитель диска: Poland
Год издания: 2008
Издатель (лейбл): Polskie Nagrania Muza
Номер по каталогу: PNCD 1223
Аудиокодек: FLAC (*.flac)
Тип рипа: tracks+.cue
Битрейт аудио: lossless
Продолжительность: 52:22
Источник (релизер): what.cd
Наличие сканов в содержимом раздачи: нет
Треклист:
1. Young Power - First Not Last (4:22)
2. Bemibem - Kolorowe Lato (Colorful Summer) (3:48)
3. Wojciech Karolak - Why Not Samba (4:15)
4. Test - Sam Sobie Zeglazem (Lonesome Sailor) (3:37)
5. Jerzy Milian - Gacek (2:16)
6. Crash and Grazyna Lobaszewska - W Najprostszych Gestach (In Simplest Gestures) (4:08)
7. Complot Of Six - Pieprzem i Sola (With Salt And Pepper) (3:50)
8. Novi Singers - Wszyscy Razem (All Together) (3:08)
9. Jan "Ptaszyn" Wróblewski - Rajd Safari (Safari Raid) (3:29)
10. Piotr Figiel -Sniadanie o Pólnocy (Breakfast At Midnight) (4:19)
11. Bemibem - Jajecznica (Scrambled Eggs) (2:02)
12. Klan - Epidemia Euforii (Epidemic Euphory) (3:48)
13. Skaldowie - Juhas Zmarl (Young Sheppard Has Died) (4:37)
14. Jerzy Milian - Czasem Bez Tercji (Sometimes Without Third) (2:22)
15. Nasza Basia Kochana - Gniewna Piosenka Muminka O Lecie (Moomin's Angry Summer Song) (2:15)
 
Лог создания рипа
Exact Audio Copy V0.99 prebeta 4 from 23. January 2008
EAC extraction logfile from 1. March 2009, 21:07
Various / Why Not Samba
Used drive : HL-DT-STDVD-RAM GSA-H55N Adapter: 1 ID: 0
Read mode : Secure
Utilize accurate stream : Yes
Defeat audio cache : Yes
Make use of C2 pointers : No
Read offset correction : 102
Overread into Lead-In and Lead-Out : No
Fill up missing offset samples with silence : Yes
Delete leading and trailing silent blocks : No
Null samples used in CRC calculations : Yes
Used interface : Native Win32 interface for Win NT & 2000
Gap handling : Appended to previous track
Used output format : Internal WAV Routines
Sample format : 44.100 Hz; 16 Bit; Stereo
TOC of the extracted CD
Track | Start | Length | Start sector | End sector
---------------------------------------------------------
1 | 0:00.00 | 4:22.21 | 0 | 19670
2 | 4:22.21 | 3:48.12 | 19671 | 36782
3 | 8:10.33 | 4:15.64 | 36783 | 55971
4 | 12:26.22 | 3:37.09 | 55972 | 72255
5 | 16:03.31 | 2:16.19 | 72256 | 82474
6 | 18:19.50 | 4:08.47 | 82475 | 101121
7 | 22:28.22 | 3:50.30 | 101122 | 118401
8 | 26:18.52 | 3:08.26 | 118402 | 132527
9 | 29:27.03 | 3:29.32 | 132528 | 148234
10 | 32:56.35 | 4:19.65 | 148235 | 167724
11 | 37:16.25 | 2:02.03 | 167725 | 176877
12 | 39:18.28 | 3:48.44 | 176878 | 194021
13 | 43:06.72 | 4:37.35 | 194022 | 214831
14 | 47:44.32 | 2:22.28 | 214832 | 225509
15 | 50:06.60 | 2:15.10 | 225510 | 235644
Track 1
Filename C:\Documents and Settings\hgi\Desktop\VA-Why Not Samba (Hot Cacktail of Tropical Grooves from Cold War Poland) (2008)\01. Track01 - Track01.wav
Pre-gap length 0:00:02.00
Peak level 97.7 %
Track quality 99.8 %
Test CRC 1D5DB9A5
Copy CRC 1D5DB9A5
Track not present in AccurateRip database
Copy OK
Track 2
Filename C:\Documents and Settings\hgi\Desktop\VA-Why Not Samba (Hot Cacktail of Tropical Grooves from Cold War Poland) (2008)\02. Track02 - Track02.wav
Pre-gap length 0:00:02.00
Peak level 97.7 %
Track quality 100.0 %
Test CRC 51CE2AFD
Copy CRC 51CE2AFD
Track not present in AccurateRip database
Copy OK
Track 3
Filename C:\Documents and Settings\hgi\Desktop\VA-Why Not Samba (Hot Cacktail of Tropical Grooves from Cold War Poland) (2008)\03. Track03 - Track03.wav
Pre-gap length 0:00:02.00
Peak level 97.7 %
Track quality 100.0 %
Test CRC AA5035A0
Copy CRC AA5035A0
Track not present in AccurateRip database
Copy OK
Track 4
Filename C:\Documents and Settings\hgi\Desktop\VA-Why Not Samba (Hot Cacktail of Tropical Grooves from Cold War Poland) (2008)\04. Track04 - Track04.wav
Pre-gap length 0:00:02.00
Peak level 97.7 %
Track quality 100.0 %
Test CRC EB3E65AF
Copy CRC EB3E65AF
Track not present in AccurateRip database
Copy OK
Track 5
Filename C:\Documents and Settings\hgi\Desktop\VA-Why Not Samba (Hot Cacktail of Tropical Grooves from Cold War Poland) (2008)\05. Track05 - Track05.wav
Pre-gap length 0:00:02.00
Peak level 97.7 %
Track quality 100.0 %
Test CRC 4EF737F2
Copy CRC 4EF737F2
Track not present in AccurateRip database
Copy OK
Track 6
Filename C:\Documents and Settings\hgi\Desktop\VA-Why Not Samba (Hot Cacktail of Tropical Grooves from Cold War Poland) (2008)\06. Track06 - Track06.wav
Pre-gap length 0:00:02.00
Peak level 97.7 %
Track quality 100.0 %
Test CRC 4993C556
Copy CRC 4993C556
Track not present in AccurateRip database
Copy OK
Track 7
Filename C:\Documents and Settings\hgi\Desktop\VA-Why Not Samba (Hot Cacktail of Tropical Grooves from Cold War Poland) (2008)\07. Track07 - Track07.wav
Pre-gap length 0:00:02.00
Peak level 97.7 %
Track quality 100.0 %
Test CRC AA495955
Copy CRC AA495955
Track not present in AccurateRip database
Copy OK
Track 8
Filename C:\Documents and Settings\hgi\Desktop\VA-Why Not Samba (Hot Cacktail of Tropical Grooves from Cold War Poland) (2008)\08. Track08 - Track08.wav
Pre-gap length 0:00:02.00
Peak level 97.7 %
Track quality 100.0 %
Test CRC 6976C784
Copy CRC 6976C784
Track not present in AccurateRip database
Copy OK
Track 9
Filename C:\Documents and Settings\hgi\Desktop\VA-Why Not Samba (Hot Cacktail of Tropical Grooves from Cold War Poland) (2008)\09. Track09 - Track09.wav
Pre-gap length 0:00:02.00
Peak level 97.7 %
Track quality 100.0 %
Test CRC B67DD3A5
Copy CRC B67DD3A5
Track not present in AccurateRip database
Copy OK
Track 10
Filename C:\Documents and Settings\hgi\Desktop\VA-Why Not Samba (Hot Cacktail of Tropical Grooves from Cold War Poland) (2008)\10. Track10 - Track10.wav
Pre-gap length 0:00:02.00
Peak level 97.7 %
Track quality 100.0 %
Test CRC DE07023C
Copy CRC DE07023C
Track not present in AccurateRip database
Copy OK
Track 11
Filename C:\Documents and Settings\hgi\Desktop\VA-Why Not Samba (Hot Cacktail of Tropical Grooves from Cold War Poland) (2008)\11. Track11 - Track11.wav
Pre-gap length 0:00:02.00
Peak level 97.7 %
Track quality 100.0 %
Test CRC 4180BC61
Copy CRC 4180BC61
Track not present in AccurateRip database
Copy OK
Track 12
Filename C:\Documents and Settings\hgi\Desktop\VA-Why Not Samba (Hot Cacktail of Tropical Grooves from Cold War Poland) (2008)\12. Track12 - Track12.wav
Pre-gap length 0:00:02.00
Peak level 97.7 %
Track quality 100.0 %
Test CRC 81417B06
Copy CRC 81417B06
Track not present in AccurateRip database
Copy OK
Track 13
Filename C:\Documents and Settings\hgi\Desktop\VA-Why Not Samba (Hot Cacktail of Tropical Grooves from Cold War Poland) (2008)\13. Track13 - Track13.wav
Pre-gap length 0:00:02.00
Peak level 97.7 %
Track quality 100.0 %
Test CRC FA3A0C8E
Copy CRC FA3A0C8E
Track not present in AccurateRip database
Copy OK
Track 14
Filename C:\Documents and Settings\hgi\Desktop\VA-Why Not Samba (Hot Cacktail of Tropical Grooves from Cold War Poland) (2008)\14. Track14 - Track14.wav
Pre-gap length 0:00:02.00
Peak level 97.7 %
Track quality 100.0 %
Test CRC A02EFD14
Copy CRC A02EFD14
Track not present in AccurateRip database
Copy OK
Track 15
Filename C:\Documents and Settings\hgi\Desktop\VA-Why Not Samba (Hot Cacktail of Tropical Grooves from Cold War Poland) (2008)\15. Track15 - Track15.wav
Pre-gap length 0:00:02.00
Peak level 97.7 %
Track quality 99.9 %
Test CRC 0387D28D
Copy CRC 0387D28D
Track not present in AccurateRip database
Copy OK
None of the tracks are present in the AccurateRip database
No errors occurred
End of status report
 
Содержание индексной карты (.CUE)
REM DATE 2008
REM DISCID E00C450F
REM COMMENT "ExactAudioCopy v0.99pb4"
PERFORMER "Various"
TITLE "Why Not Samba"
FILE "01. Track01 - Track01.wav" WAVE
TRACK 01 AUDIO
TITLE "Track01"
PERFORMER "Track01"
ISRC PLA248728469
INDEX 01 00:00:00
TRACK 02 AUDIO
TITLE "Track02"
PERFORMER "Track02"
ISRC PLA247417870
INDEX 00 04:20:21
FILE "02. Track02 - Track02.wav" WAVE
INDEX 01 00:00:00
TRACK 03 AUDIO
TITLE "Track03"
PERFORMER "Track03"
ISRC PLA247417616
INDEX 00 03:46:12
FILE "03. Track03 - Track03.wav" WAVE
INDEX 01 00:00:00
TRACK 04 AUDIO
TITLE "Track04"
PERFORMER "Track04"
ISRC PLA247215743
INDEX 00 04:13:64
FILE "04. Track04 - Track04.wav" WAVE
INDEX 01 00:00:00
TRACK 05 AUDIO
TITLE "Track05"
PERFORMER "Track05"
ISRC PLA247519576
INDEX 00 03:35:09
FILE "05. Track05 - Track05.wav" WAVE
INDEX 01 00:00:00
TRACK 06 AUDIO
TITLE "Track06"
PERFORMER "Track06"
ISRC PLA247923204
INDEX 00 02:14:19
FILE "06. Track06 - Track06.wav" WAVE
INDEX 01 00:00:00
TRACK 07 AUDIO
TITLE "Track07"
PERFORMER "Track07"
ISRC PLA247519144
INDEX 00 04:06:47
FILE "07. Track07 - Track07.wav" WAVE
INDEX 01 00:00:00
TRACK 08 AUDIO
TITLE "Track08"
PERFORMER "Track08"
ISRC PLA247014132
INDEX 00 03:48:30
FILE "08. Track08 - Track08.wav" WAVE
INDEX 01 00:00:00
TRACK 09 AUDIO
TITLE "Track09"
PERFORMER "Track09"
ISRC PLA246913204
INDEX 00 03:06:26
FILE "09. Track09 - Track09.wav" WAVE
INDEX 01 00:00:00
TRACK 10 AUDIO
TITLE "Track10"
PERFORMER "Track10"
ISRC PLA247115320
INDEX 00 03:27:32
FILE "10. Track10 - Track10.wav" WAVE
INDEX 01 00:00:00
TRACK 11 AUDIO
TITLE "Track11"
PERFORMER "Track11"
ISRC PLA247417867
INDEX 00 04:17:65
FILE "11. Track11 - Track11.wav" WAVE
INDEX 01 00:00:00
TRACK 12 AUDIO
TITLE "Track12"
PERFORMER "Track12"
ISRC PLA247114789
INDEX 00 02:00:03
FILE "12. Track12 - Track12.wav" WAVE
INDEX 01 00:00:00
TRACK 13 AUDIO
TITLE "Track13"
PERFORMER "Track13"
ISRC PLA247216059
INDEX 00 03:46:44
FILE "13. Track13 - Track13.wav" WAVE
INDEX 01 00:00:00
TRACK 14 AUDIO
TITLE "Track14"
PERFORMER "Track14"
ISRC PLA247519575
INDEX 00 04:35:35
FILE "14. Track14 - Track14.wav" WAVE
INDEX 01 00:00:00
TRACK 15 AUDIO
TITLE "Track15"
PERFORMER "Track15"
ISRC PLA248124837
INDEX 00 02:20:28
FILE "15. Track15 - Track15.wav" WAVE
INDEX 01 00:00:00
Jerzy Milian - Gacek
11:38
266
Нет комментариев. Ваш будет первым!