Поиск

(Bossa-nova, Latin jazz) Sergio Mendes & Brasil'66 "Look Around" - 2000, APE (image+.cue), lossless

Треклист:
Sergio Mendes & Brasil'66 "Look Around"
Жанр: Bossa-nova, Latin jazz
Год выпуска диска: 2000
Производитель диска: The Verve Music Group и A&M Records
Аудио кодек: APE
Тип рипа: image+.cue
Битрейт аудио: lossless
Продолжительность: 30:33
Трэклист:
1. With A Little Help From My Friends 2:38
2. Roda 2:26
3. Like A Lover 3:55
4. The Frog 2:45
5. Tristeza (Goodbye Sadness) 2:57
6. The Look Of Love 2:46
7. Pradizer Adeus (To Say Goodbye) 3:08
8. Batucada (The Beat) 2:23
9. So Many Stars 4:30
10. Look Around 3:00
Доп. информация: Look Around - Третий альбом Sergio Mendes и группы Brasil '66 с вокалистами Lani Hall и Janis Hansen. Альбом вышел в 1968 году. В 2000 году ремастеринговый альбом вышел на CD.
 
Отчёт EAC
Exact Audio Copy V0.99 prebeta 5 from 4. May 2009
Отчёт EAC об извлечении, выполненном 22. апреля 2010, 15:11
Sergio Mendes & Brasil '66 / Look Around
Дисковод: ASUS DRW-2014S1 Adapter: 1 ID: 0
Режим чтения : Достоверность
Использование точного потока : Да
Отключение кэша аудио : Да
Использование указателей C2 : Нет
Коррекция смещения при чтении : 6
Способность читать области Lead-in и Lead-out : Нет
Заполнение пропущенных сэмплов тишиной : Да
Удаление блоков с тишиной в начале и конце : Нет
При вычислениях CRC использовались нулевые сэмплы : Да
Интерфейс : Встроенный Win32-интерфейс для Win NT/2000
Выходной формат : Внутренние WAV-операции
Формат сэмплов : 44.100 Гц; 16 бит; стерео
TOC извлечённого CD
Трек | Старт | Длительность | Начальный сектор | Конечный сектор
---------------------------------------------------------------------
1 | 0:00.00 | 2:38.25 | 0 | 11874
2 | 2:38.25 | 2:26.53 | 11875 | 22877
3 | 5:05.03 | 3:55.17 | 22878 | 40519
4 | 9:00.20 | 2:45.45 | 40520 | 52939
5 | 11:45.65 | 2:57.48 | 52940 | 66262
6 | 14:43.38 | 2:46.05 | 66263 | 78717
7 | 17:29.43 | 3:08.47 | 78718 | 92864
8 | 20:38.15 | 2:23.08 | 92865 | 103597
9 | 23:01.23 | 4:30.62 | 103598 | 123909
10 | 27:32.10 | 3:00.73 | 123910 | 137482
Характеристики диапазона извлечения и сообщения об ошибках
Выбранный диапазон
Имя файла C:\Documents and Settings\Администратор\Рабочий стол\Look\Sergio Mendes & Brasil '66 - Look Around.wav
Пиковый уровень 100.0 %
Качество диапазона 100.0 %
CRC копии C9FFCBC9
Копирование... OK
Ошибок не произошло
AccurateRip: сводка
Трек 1 точность не определена (достоверность 2) [3D7F22CF], AccurateRip вернул [62FE73A1]
Трек 2 точность не определена (достоверность 2) [FB64E1E7], AccurateRip вернул [1CB46034]
Трек 3 точность не определена (достоверность 2) [19EEE8E0], AccurateRip вернул [E85B8D53]
Трек 4 точность не определена (достоверность 2) [9FF4A9D6], AccurateRip вернул [B86309FB]
Трек 5 точность не определена (достоверность 2) [3492CFAE], AccurateRip вернул [93F0E589]
Трек 6 точность не определена (достоверность 2) [AF88963F], AccurateRip вернул [9C63B19A]
Трек 7 точность не определена (достоверность 2) [BDF68FD7], AccurateRip вернул [83D11E9E]
Трек 8 точность не определена (достоверность 2) [ED2914E8], AccurateRip вернул [C884D821]
Трек 9 точность не определена (достоверность 2) [5D1183B4], AccurateRip вернул [465BBF0A]
Трек 10 точность не определена (достоверность 2) [71AC5BE8], AccurateRip вернул [2310194D]
Ни один трек не прошёл проверки на точность
В вашей базе может быть иной вариант штамповки диска
Конец отчёта
15:16
342
Нет комментариев. Ваш будет первым!