Поиск

(Bossa Nova / Latin Jazz) Edu Lobo & Maria Bethania - Edu e Bethania - 1967 / 2004, FLAC (tracks+.cue), lossless

(Bossa Nova / Latin Jazz) Edu Lobo & Maria Bethania - Edu e Bethania - 1967 / 2004, FLAC (tracks+.cue), lossless
Треклист:
Edu Lobo & Maria Bethania / Edu e Bethania
Жанр: Bossa Nova / Latin Jazz
Страна-производитель диска: Made In EU (Germany)
Год издания альбома / диска: 1967 / 2004
Издатель (лейбл): Elenco / EmArcy / Universal Music
Номер по каталогу: ME-37 / 0731451205323
Страна: Brazil
Аудиокодек: FLAC (*.flac)
Тип рипа: tracks+.cue
Битрейт аудио: lossless
Продолжительность: 00:32:27
Источник (релизер): собственный диск
Наличие сканов в содержимом раздачи: да
Треклист:
01. Upa Neguinho - 2:18
02. Cirandeiro - 3:42
03. Sinhere - 2:43
04. Lua Nova - 2:31
05. Candeias - 2:52
06. Boranda - 3:21
07. Pra Dizer Adeus - 4:11
08. Veleiro - 3:10
09. So Me Fez Bem - 2:02
10. O Tempo E O Rio - 5:14
Сидирование раздачи - лучшее спасибо
 
Лог создания рипа
Exact Audio Copy V1.0 beta 3 from 29. August 2011
EAC extraction logfile from 14. June 2013, 17:49
Edu Lobo & Maria Bethania / Edu e Bethania
Used drive : TSSTcorpCDDVDW TS-L633C Adapter: 0 ID: 1
Read mode : Secure
Utilize accurate stream : Yes
Defeat audio cache : Yes
Make use of C2 pointers : No
Read offset correction : 6
Overread into Lead-In and Lead-Out : No
Fill up missing offset samples with silence : Yes
Delete leading and trailing silent blocks : No
Null samples used in CRC calculations : Yes
Used interface : Native Win32 interface for Win NT & 2000
Gap handling : Appended to previous track
Used output format : User Defined Encoder
Selected bitrate : 1024 kBit/s
Quality : High
Add ID3 tag : No
Command line compressor : C:\Program Files\Exact Audio Copy\FLAC\FLAC.EXE
Additional command line options : -6 -V -T "ARTIST=%artist%" -T "TITLE=%title%" -T "ALBUM=%albumtitle%" -T "DATE=%year%" -T "TRACKNUMBER=%tracknr%" -T "GENRE=%genre%" -T "COMMENT=%comment%" -T "BAND=%albuminterpret%" -T "ALBUMARTIST=%albuminterpret%" -T "COMPOSER=%composer%" %haslyrics%--tag-from-file=LYRICS="%lyricsfile%"%haslyrics% -T "DISCNUMBER=%cdnumber%" -T "TOTALDISCS=%totalcds%" -T "TOTALTRACKS=%numtracks%" %hascover%--picture="%coverfile%"%hascover% %source% -o %dest%
TOC of the extracted CD
Track | Start | Length | Start sector | End sector
---------------------------------------------------------
1 | 0:00.00 | 2:20.30 | 0 | 10529
2 | 2:20.30 | 3:44.15 | 10530 | 27344
3 | 6:04.45 | 2:45.27 | 27345 | 39746
4 | 8:49.72 | 2:33.63 | 39747 | 51284
5 | 11:23.60 | 2:54.35 | 51285 | 64369
6 | 14:18.20 | 3:23.23 | 64370 | 79617
7 | 17:41.43 | 4:13.70 | 79618 | 98662
8 | 21:55.38 | 3:12.45 | 98663 | 113107
9 | 25:08.08 | 2:04.37 | 113108 | 122444
10 | 27:12.45 | 5:14.59 | 122445 | 146053
Track 1
Filename C:\Users\Кактус\Desktop\Edu Lobo & Maria Bethania\01 Upa, Neguinho.wav
Pre-gap length 0:00:02.00
Peak level 93.4 %
Extraction speed 1.3 X
Track quality 99.9 %
Test CRC AA16068A
Copy CRC AA16068A
Copy OK
Track 2
Filename C:\Users\Кактус\Desktop\Edu Lobo & Maria Bethania\02 Cirandeiro.wav
Pre-gap length 0:00:02.00
Peak level 95.8 %
Extraction speed 1.8 X
Track quality 100.0 %
Test CRC 620277F7
Copy CRC 620277F7
Copy OK
Track 3
Filename C:\Users\Кактус\Desktop\Edu Lobo & Maria Bethania\03 Sinhere.wav
Pre-gap length 0:00:02.00
Peak level 95.6 %
Extraction speed 1.6 X
Track quality 99.9 %
Test CRC 3A52E0E9
Copy CRC 3A52E0E9
Copy OK
Track 4
Filename C:\Users\Кактус\Desktop\Edu Lobo & Maria Bethania\04 Lua Nova.wav
Pre-gap length 0:00:02.00
Peak level 96.3 %
Extraction speed 1.9 X
Track quality 100.0 %
Test CRC 3DF165AD
Copy CRC 3DF165AD
Copy OK
Track 5
Filename C:\Users\Кактус\Desktop\Edu Lobo & Maria Bethania\05 Candeias.wav
Pre-gap length 0:00:02.00
Peak level 92.9 %
Extraction speed 2.1 X
Track quality 100.0 %
Test CRC F56CDBF5
Copy CRC F56CDBF5
Copy OK
Track 6
Filename C:\Users\Кактус\Desktop\Edu Lobo & Maria Bethania\06 Boranda.wav
Pre-gap length 0:00:02.00
Peak level 93.4 %
Extraction speed 2.3 X
Track quality 100.0 %
Test CRC 05C17CD1
Copy CRC 05C17CD1
Copy OK
Track 7
Filename C:\Users\Кактус\Desktop\Edu Lobo & Maria Bethania\07 Pra Dizer Adeus.wav
Pre-gap length 0:00:02.00
Peak level 96.3 %
Extraction speed 2.2 X
Track quality 99.9 %
Test CRC 1447E726
Copy CRC 1447E726
Copy OK
Track 8
Filename C:\Users\Кактус\Desktop\Edu Lobo & Maria Bethania\08 Veleiro.wav
Pre-gap length 0:00:02.00
Peak level 91.4 %
Extraction speed 2.5 X
Track quality 100.0 %
Test CRC 9B1B0ADC
Copy CRC 9B1B0ADC
Copy OK
Track 9
Filename C:\Users\Кактус\Desktop\Edu Lobo & Maria Bethania\09 So Me Fez Bem.wav
Pre-gap length 0:00:02.00
Peak level 96.3 %
Extraction speed 1.9 X
Track quality 99.9 %
Test CRC 82ED6F0E
Copy CRC 82ED6F0E
Copy OK
Track 10
Filename C:\Users\Кактус\Desktop\Edu Lobo & Maria Bethania\10 O Tempo E O Rio.wav
Pre-gap length 0:00:02.00
Peak level 96.6 %
Extraction speed 2.9 X
Track quality 100.0 %
Test CRC 830B58AD
Copy CRC 830B58AD
Copy OK
No errors occurred
End of status report
==== Log checksum 4D06CB58C9A0373F83F9E9243F1A6CADE3A62CFE7C572169D07FE612E425F4FF ====
 
Содержание индексной карты (.CUE)
REM GENRE Jazz
REM DATE 1966
REM DISCID 6D079B0A
REM COMMENT "ExactAudioCopy v1.0b3"
PERFORMER "Edu Lobo & Maria Bethania"
TITLE "Edu e Bethania"
FILE "01 Upa, Neguinho.wav" WAVE
TRACK 01 AUDIO
TITLE "Upa, Neguinho"
PERFORMER "Edu Lobo & Maria Bethania"
INDEX 01 00:00:00
TRACK 02 AUDIO
TITLE "Cirandeiro"
PERFORMER "Edu Lobo & Maria Bethania"
INDEX 00 02:18:30
FILE "02 Cirandeiro.wav" WAVE
INDEX 01 00:00:00
TRACK 03 AUDIO
TITLE "Sinhere"
PERFORMER "Edu Lobo & Maria Bethania"
INDEX 00 03:42:15
FILE "03 Sinhere.wav" WAVE
INDEX 01 00:00:00
TRACK 04 AUDIO
TITLE "Lua Nova"
PERFORMER "Edu Lobo & Maria Bethania"
INDEX 00 02:43:27
FILE "04 Lua Nova.wav" WAVE
INDEX 01 00:00:00
TRACK 05 AUDIO
TITLE "Candeias"
PERFORMER "Edu Lobo & Maria Bethania"
INDEX 00 02:31:63
FILE "05 Candeias.wav" WAVE
INDEX 01 00:00:00
TRACK 06 AUDIO
TITLE "Boranda"
PERFORMER "Edu Lobo & Maria Bethania"
INDEX 00 02:52:35
FILE "06 Boranda.wav" WAVE
INDEX 01 00:00:00
TRACK 07 AUDIO
TITLE "Pra Dizer Adeus"
PERFORMER "Edu Lobo & Maria Bethania"
INDEX 00 03:21:23
FILE "07 Pra Dizer Adeus.wav" WAVE
INDEX 01 00:00:00
TRACK 08 AUDIO
TITLE "Veleiro"
PERFORMER "Edu Lobo & Maria Bethania"
INDEX 00 04:11:70
FILE "08 Veleiro.wav" WAVE
INDEX 01 00:00:00
TRACK 09 AUDIO
TITLE "So Me Fez Bem"
PERFORMER "Edu Lobo & Maria Bethania"
INDEX 00 03:10:45
FILE "09 So Me Fez Bem.wav" WAVE
INDEX 01 00:00:00
TRACK 10 AUDIO
TITLE "O Tempo E O Rio"
PERFORMER "Edu Lobo & Maria Bethania"
INDEX 00 02:02:37
FILE "10 O Tempo E O Rio.wav" WAVE
INDEX 01 00:00:00
12:48
327
Нет комментариев. Ваш будет первым!