Поиск

(Bossa Nova, Latin Jazz) [CD] The Paul Winter Sextet - Jazz Meets the Bossa Nova - 1962 (2005 Japan Edition), FLAC (tracks+.cue), lossless

(Bossa Nova, Latin Jazz) [CD] The Paul Winter Sextet - Jazz Meets the Bossa Nova - 1962 (2005 Japan Edition), FLAC (tracks+.cue), lossless
Треклист:
The Paul Winter Sextet - Jazz Meets the Bossa Nova
Жанр: Bossa Nova, Latin Jazz
Носитель: CD
Страна-производитель диска (релиза): Япония
Год издания: 1962 (2005)
Издатель (лейбл): Sony Music Japan
Номер по каталогу: SICP 870
Аудиокодек: FLAC (*.flac)
Тип рипа: tracks+.cue
Битрейт аудио: lossless
Продолжительность: 39:03
Источник (релизер): what.cd
Наличие сканов в содержимом раздачи: нет
Треклист:
01. Journey to Recife (2:42)
02. Con Alma (4:10)
03. The Spell of the Samba (Samba da Minha Terra) (2:49)
04. Maria Nobody (Maria Ninguem) (3:06)
05. The Anguish of Longing (Chega de Saudade) (3:03)
06. Foolish One (Insensatez) (3:42)
07. Little Boat (O Barquinho) (3:07)
08. Longing for Bahia (Saudade da Bahia) (4:30)
09. Don't Play Games with Me (Bolinha de Papel) (1:59)
10. Song of the Sad Eyes (Cancao dos Olhos Tristes) (5:04)
11. Adeus, Passaro Preto (Bye Bye Blackbird) (2:02)
12. Only You and I (Voce e Eu) (2:49)
Состав:
Paul Winter - alto saxophone, soprano saxophone
Dick Whitsell - trumpet
Les Rout - bass saxophone
Warren Bernhardt - piano
Richard Evans - bass
Harold Jones - drums
Recorded in Rio de Janeiro and New York.
 
Лог создания рипа
Exact Audio Copy V1.0 beta 3 from 29. August 2011
EAC extraction logfile from 18. June 2015, 18:17
The Paul Winter Sextet / Jazz Meets the Bossa Nova
Used drive : ATAPI iHAS324 W Adapter: 0 ID: 0
Read mode : Secure
Utilize accurate stream : Yes
Defeat audio cache : Yes
Make use of C2 pointers : No
Read offset correction : 48
Overread into Lead-In and Lead-Out : No
Fill up missing offset samples with silence : Yes
Delete leading and trailing silent blocks : No
Null samples used in CRC calculations : Yes
Used interface : Native Win32 interface for Win NT & 2000
Gap handling : Appended to previous track
Used output format : User Defined Encoder
Selected bitrate : 1024 kBit/s
Quality : High
Add ID3 tag : No
Command line compressor : C:\Program Files (x86)\Exact Audio Copy\Flac\flac.exe
Additional command line options : -8 -V -T "ARTIST=%artist%" -T "TITLE=%title%" -T "ALBUM=%albumtitle%" -T "DATE=%year%" -T "TRACKNUMBER=%tracknr%" -T "GENRE=%genre%" -T "PERFORMER=%albuminterpret%" -T "COMPOSER=%composer%" %haslyrics%--tag-from-file=LYRICS="%lyricsfile%"%haslyrics% -T "ALBUMARTIST=%albumartist%" -T "DISCNUMBER=%cdnumber%" -T "TOTALDISCS=%totalcds%" -T "TOTALTRACKS=%numtracks%" -T "COMMENT=%comment%" %source% -o %dest%
TOC of the extracted CD
Track | Start | Length | Start sector | End sector
---------------------------------------------------------
1 | 0:00.00 | 2:41.72 | 0 | 12146
2 | 2:41.72 | 4:10.05 | 12147 | 30901
3 | 6:52.02 | 2:48.63 | 30902 | 43564
4 | 9:40.65 | 3:06.37 | 43565 | 57551
5 | 12:47.27 | 3:03.23 | 57552 | 71299
6 | 15:50.50 | 3:41.70 | 71300 | 87944
7 | 19:32.45 | 3:06.55 | 87945 | 101949
8 | 22:39.25 | 4:30.30 | 101950 | 122229
9 | 27:09.55 | 1:59.22 | 122230 | 131176
10 | 29:09.02 | 5:04.18 | 131177 | 153994
11 | 34:13.20 | 2:01.55 | 153995 | 163124
12 | 36:15.00 | 2:49.15 | 163125 | 175814
Track 1
Filename C:\Music\EAC Rips\Paul Winter Sextet, The - Jazz Meets the Bossa Nova - (1962) [FLAC] {2005 Japan Remaster - SICP 870}\01. Journey to Recife.wav
Pre-gap length 0:00:02.00
Peak level 92.0 %
Extraction speed 4.0 X
Track quality 100.0 %
Test CRC 46DA9269
Copy CRC 46DA9269
Track not present in AccurateRip database
Copy OK
Track 2
Filename C:\Music\EAC Rips\Paul Winter Sextet, The - Jazz Meets the Bossa Nova - (1962) [FLAC] {2005 Japan Remaster - SICP 870}\02. Con Alma.wav
Pre-gap length 0:00:03.45
Peak level 83.1 %
Extraction speed 4.8 X
Track quality 100.0 %
Test CRC 6058C650
Copy CRC 6058C650
Track not present in AccurateRip database
Copy OK
Track 3
Filename C:\Music\EAC Rips\Paul Winter Sextet, The - Jazz Meets the Bossa Nova - (1962) [FLAC] {2005 Japan Remaster - SICP 870}\03. The Spell of the Samba.wav
Pre-gap length 0:00:03.35
Peak level 100.0 %
Extraction speed 4.9 X
Track quality 100.0 %
Test CRC 8316AAC9
Copy CRC 8316AAC9
Track not present in AccurateRip database
Copy OK
Track 4
Filename C:\Music\EAC Rips\Paul Winter Sextet, The - Jazz Meets the Bossa Nova - (1962) [FLAC] {2005 Japan Remaster - SICP 870}\04. Maria Nobody (Maria Ninguém).wav
Pre-gap length 0:00:03.30
Peak level 82.6 %
Extraction speed 5.2 X
Track quality 100.0 %
Test CRC FA027A10
Copy CRC FA027A10
Track not present in AccurateRip database
Copy OK
Track 5
Filename C:\Music\EAC Rips\Paul Winter Sextet, The - Jazz Meets the Bossa Nova - (1962) [FLAC] {2005 Japan Remaster - SICP 870}\05. The Anguish of Longing (Chega de Saudade).wav
Pre-gap length 0:00:03.60
Peak level 85.6 %
Extraction speed 5.5 X
Track quality 100.0 %
Test CRC 463A0454
Copy CRC 463A0454
Track not present in AccurateRip database
Copy OK
Track 6
Filename C:\Music\EAC Rips\Paul Winter Sextet, The - Jazz Meets the Bossa Nova - (1962) [FLAC] {2005 Japan Remaster - SICP 870}\06. Foolish One (Insensatez).wav
Pre-gap length 0:00:04.08
Peak level 88.5 %
Extraction speed 6.0 X
Track quality 100.0 %
Test CRC D92A0124
Copy CRC D92A0124
Track not present in AccurateRip database
Copy OK
Track 7
Filename C:\Music\EAC Rips\Paul Winter Sextet, The - Jazz Meets the Bossa Nova - (1962) [FLAC] {2005 Japan Remaster - SICP 870}\07. Little Boat (O Barquinho).wav
Pre-gap length 0:00:03.15
Peak level 91.9 %
Extraction speed 6.0 X
Track quality 100.0 %
Test CRC 4890523D
Copy CRC 4890523D
Track not present in AccurateRip database
Copy OK
Track 8
Filename C:\Music\EAC Rips\Paul Winter Sextet, The - Jazz Meets the Bossa Nova - (1962) [FLAC] {2005 Japan Remaster - SICP 870}\08. Longing for Bahia (Saudade da Bahia).wav
Pre-gap length 0:00:03.53
Peak level 87.1 %
Extraction speed 6.7 X
Track quality 100.0 %
Test CRC 67BF2B1F
Copy CRC 67BF2B1F
Track not present in AccurateRip database
Copy OK
Track 9
Filename C:\Music\EAC Rips\Paul Winter Sextet, The - Jazz Meets the Bossa Nova - (1962) [FLAC] {2005 Japan Remaster - SICP 870}\09. Don't Play Games With Me (Bolinha de Papel).wav
Pre-gap length 0:00:03.68
Peak level 94.5 %
Extraction speed 6.1 X
Track quality 100.0 %
Test CRC 8EDC3117
Copy CRC 8EDC3117
Track not present in AccurateRip database
Copy OK
Track 10
Filename C:\Music\EAC Rips\Paul Winter Sextet, The - Jazz Meets the Bossa Nova - (1962) [FLAC] {2005 Japan Remaster - SICP 870}\10. Song of the Sad Eyes (Canção Dos Olhos Tristes).wav
Pre-gap length 0:00:03.52
Peak level 84.2 %
Extraction speed 7.3 X
Track quality 100.0 %
Test CRC ADB83094
Copy CRC ADB83094
Track not present in AccurateRip database
Copy OK
Track 11
Filename C:\Music\EAC Rips\Paul Winter Sextet, The - Jazz Meets the Bossa Nova - (1962) [FLAC] {2005 Japan Remaster - SICP 870}\11. Adeus, Pássaro Prêto (Bye Bye Blackbird).wav
Pre-gap length 0:00:03.65
Peak level 87.5 %
Extraction speed 6.4 X
Track quality 100.0 %
Test CRC F295FDB6
Copy CRC F295FDB6
Track not present in AccurateRip database
Copy OK
Track 12
Filename C:\Music\EAC Rips\Paul Winter Sextet, The - Jazz Meets the Bossa Nova - (1962) [FLAC] {2005 Japan Remaster - SICP 870}\12. Only You and I (Você E Eu).wav
Pre-gap length 0:00:03.70
Peak level 94.9 %
Extraction speed 7.1 X
Track quality 100.0 %
Test CRC 08A923FE
Copy CRC 08A923FE
Track not present in AccurateRip database
Copy OK
None of the tracks are present in the AccurateRip database
No errors occurred
End of status report
---- CUETools DB Plugin V2.1.3
[CTDB TOCID: YGVBJvd6u6u6qsarrzissc2KFFw-] disk not present in database, Submit result: YGVBJvd6u6u6qsarrzissc2KFFw- has been uploaded
==== Log checksum 901E81C0A8F61FEDC20660DAB02B48859B864E88ED6EECA7D9595C7AF5D196E0 ====
 
Содержание индексной карты (.CUE)
REM GENRE Jazz
REM DATE 1962
REM DISCID 9809280C
REM COMMENT "ExactAudioCopy v1.0b3"
PERFORMER "Paul Winter"
TITLE "Jazz Meets the Bossa Nova"
FILE "01 - Journey to Recife.wav" WAVE
TRACK 01 AUDIO
TITLE "Journey to Recife"
PERFORMER "Paul Winter"
INDEX 01 00:00:00
TRACK 02 AUDIO
TITLE "Con Alma"
PERFORMER "Paul Winter"
INDEX 00 02:38:27
FILE "02 - Con Alma.wav" WAVE
INDEX 01 00:00:00
TRACK 03 AUDIO
TITLE "The Spell of the Samba (Samba da Minha Terra)"
PERFORMER "Paul Winter"
INDEX 00 04:06:45
FILE "03 - The Spell of the Samba (Samba da Minha Terra).wav" WAVE
INDEX 01 00:00:00
TRACK 04 AUDIO
TITLE "Maria Nobody (Maria Ninguem)"
PERFORMER "Paul Winter"
INDEX 00 02:45:33
FILE "04 - Maria Nobody (Maria Ninguem).wav" WAVE
INDEX 01 00:00:00
TRACK 05 AUDIO
TITLE "The Anguish of Longing (Chega de Saudade)"
PERFORMER "Paul Winter"
INDEX 00 03:02:52
FILE "05 - The Anguish of Longing (Chega de Saudade).wav" WAVE
INDEX 01 00:00:00
TRACK 06 AUDIO
TITLE "Foolish One (Insensatez)"
PERFORMER "Paul Winter"
INDEX 00 02:59:15
FILE "06 - Foolish One (Insensatez).wav" WAVE
INDEX 01 00:00:00
TRACK 07 AUDIO
TITLE "Little Boat (O Barquinho)"
PERFORMER "Paul Winter"
INDEX 00 03:38:55
FILE "07 - Little Boat (O Barquinho).wav" WAVE
INDEX 01 00:00:00
TRACK 08 AUDIO
TITLE "Longing for Bahia (Saudade da Bahia)"
PERFORMER "Paul Winter"
INDEX 00 03:03:02
FILE "08 - Longing for Bahia (Saudade da Bahia).wav" WAVE
INDEX 01 00:00:00
TRACK 09 AUDIO
TITLE "Don't Play Games with Me (Bolinha de Papel)"
PERFORMER "Paul Winter"
INDEX 00 04:26:37
FILE "09 - Don't Play Games with Me (Bolinha de Papel).wav" WAVE
INDEX 01 00:00:00
TRACK 10 AUDIO
TITLE "Song of the Sad Eyes (Cancao dos Olhos Tristes)"
PERFORMER "Paul Winter"
INDEX 00 01:55:45
FILE "10 - Song of the Sad Eyes (Cancao dos Olhos Tristes).wav" WAVE
INDEX 01 00:00:00
TRACK 11 AUDIO
TITLE "Adeus, Passaro Preto (Bye Bye Blackbird)"
PERFORMER "Paul Winter"
INDEX 00 05:00:28
FILE "11 - Adeus, Passaro Preto (Bye Bye Blackbird).wav" WAVE
INDEX 01 00:00:00
TRACK 12 AUDIO
TITLE "Only You and I (Voce e Eu)"
PERFORMER "Paul Winter"
INDEX 00 01:57:60
FILE "12 - Only You and I (Voce e Eu).wav" WAVE
INDEX 01 00:00:00
19:07
223
Нет комментариев. Ваш будет первым!