Поиск

(Bossa Nova, Cool, Post-Bop) Stan Getz and Joao Gilberto - The Best of Two Worlds - 1975, APE (image+.cue), lossless

(Bossa Nova, Cool, Post-Bop) Stan Getz and Joao Gilberto - The Best of Two Worlds - 1975, APE (image+.cue), lossless
Треклист:
Stan Getz and Joao Gilberto - The Best of Two Worlds
Жанр: Bossa Nova, Cool, Post-Bop
Год выпуска диска: 1975
Производитель диска: Columbia
Аудио кодек: APE
Тип рипа: image+.cue
Битрейт аудио: lossless
Продолжительность: 43:47
Трэклист:
01. Double Rainbow Jobim, Lees 3:35
02. Aguas de Março (Waters of March) Jobim 4:44
03. Ligia Jobim 5:24
04. Falsa Bahiana Pereira 5:06
05. Retrato en Branco e Prieto (Picture in Black and White) Buarque, Jobim 4:05
06. Izaura (You Know I Just Shouldn't Stay) Martins, Roberti 4:39
07. Eu Vim da Bahia Gil 3:57
08. Joao Marcello Gilberto 3:26
09. É Preciso Perdoar Costa, Luz 5:17
10. Just One of Those Things Porter 3:04
 
EAC
Exact Audio Copy V0.99 prebeta 4 from 23. January 2008
Отчёт EAC об извлечении, выполненном 14. февраля 2009, 12:35
Stan Getz and Joao Gilberto / The Best of Two Worlds
Дисковод: ASUS - DRW-1814BLT Adapter: 2 ID: 0
Режим чтения : Достоверность
Использование точного потока : Да
Отключение кэша аудио : Да
Использование указателей C2 : Нет
Коррекция смещения при чтении : 6
Способность читать области Lead-in и Lead-out : Нет
Заполнение пропущенных сэмплов тишиной : Да
Удаление блоков с тишиной в начале и конце : Нет
При вычислениях CRC использовались нулевые сэмплы : Да
Интерфейс : Установленный внешний ASPI-интерфейс
Выходной формат : Внутренние WAV-операции
Формат сэмплов : 44.100 Гц; 16 бит; стерео
TOC извлечённого CD
Трек | Старт | Длительность | Начальный сектор | Конечный сектор
---------------------------------------------------------------------
1 | 0:00.00 | 3:38.10 | 0 | 16359
2 | 3:38.10 | 4:47.39 | 16360 | 37923
3 | 8:25.49 | 5:26.57 | 37924 | 62430
4 | 13:52.31 | 5:08.27 | 62431 | 85557
5 | 19:00.58 | 4:10.66 | 85558 | 104373
6 | 23:11.49 | 4:43.63 | 104374 | 125661
7 | 27:55.37 | 3:59.06 | 125662 | 143592
8 | 31:54.43 | 3:29.25 | 143593 | 159292
9 | 35:23.68 | 5:22.38 | 159293 | 183480
10 | 40:46.31 | 3:01.21 | 183481 | 197076
Характеристики диапазона извлечения и сообщения об ошибках
Выбранный диапазон
Имя файла D:\Stan Getz and Joao Gilberto - The Best of Two Worlds.wav
Пиковый уровень 99.3 %
Качество диапазона 100.0 %
CRC копии 265BFEE6
Копирование... OK
Ошибок не произошло
Конец отчёта
04:48
270
Нет комментариев. Ваш будет первым!