Вы используете незарегистрированную версию компонента "Вкладки"!

Поиск

(Bossa Nova, Cool) [CD] L.A. 4 (Laurindo Almeida, Ray Brown, Shelly Manne, Bud Shank) - The L.A. Four Scores! - 1975 (2014 Japan Edition), FLAC (image+.cue), lossless

(Bossa Nova, Cool) [CD] L.A. 4 (Laurindo Almeida, Ray Brown, Shelly Manne, Bud Shank) - The L.A. Four Scores! - 1975 (2014 Japan Edition), FLAC (image+.cue), lossless
Треклист:
L.A. 4 - The L.A. Four Scores!
Жанр: Bossa Nova, Cool
Носитель: CD
Страна-производитель диска (релиза): Япония
Год издания: 2014
Издатель (лейбл): Concord/Universal Classics & Jazz
Номер по каталогу: UCCO-90304
Страна исполнителя (группы): США
Аудиокодек: FLAC (*.flac)
Тип рипа: image+.cue
Битрейт аудио: lossless
Продолжительность: 46:47
Источник (релизер): диск из моей коллекции
Наличие сканов в содержимом раздачи: да
Треклист:
01. Sundancers (Shank) - 7:58
02. Carioca Hills (Almeida) - 4:07
03. Allemande and Fox (Weiss-Almeida) - 4:41
04. Berimbau Carioca (Almeida) - 7:18
05. Cielo (Almeida) - 5:26
06. Prelude, Op.28 No.4 (Chopin)/How Insensitive (Jobim-Gimbel) - 6:03
07. Old Time Rag (Almeida) - 2:17
08. Manha de Carnaval (Maria-Bonfa) - 8:58
Состав:
Laurindo Almeida - guitar
Ray Brown - bass, cello (#6)
Shelly Manne - drums, percussion, whistle (#2), berimbau (#4)
Bud Shank - flute (#1,4,5), alto saxophone (#2,8)
Recorded live at Concord Boulevard Park, Concord, CA on July 27, 1974.
 
Лог создания рипа
Exact Audio Copy V1.0 beta 4 from 7. December 2014
EAC extraction logfile from 13. February 2015, 17:03
L.A. 4 / The L.A. Four Scores!
Used drive : ASUS DRW-24B1LT Adapter: 1 ID: 1
Read mode : Secure
Utilize accurate stream : Yes
Defeat audio cache : Yes
Make use of C2 pointers : No
Read offset correction : 6
Overread into Lead-In and Lead-Out : No
Fill up missing offset samples with silence : Yes
Delete leading and trailing silent blocks : No
Null samples used in CRC calculations : Yes
Used interface : Native Win32 interface for Win NT & 2000
Used output format : User Defined Encoder
Selected bitrate : 768 kBit/s
Quality : High
Add ID3 tag : No
Command line compressor : C:\Program Files\Exact Audio Copy\Flac\flac.exe
Additional command line options : -8 -V -T "ARTIST=%artist%" -T "TITLE=%title%" -T "ALBUM=%albumtitle%" -T "DATE=%year%" -T "TRACKNUMBER=%tracknr%" -T "TOTALTRACKS=%numtracks%" -T "GENRE=%genre%" -T "ALBUMARTIST=%albumartist%" -T "ALBUM ARTIST=%albumartist%" -T "COMMENT=EAC Secure Mode, Test & Copy, AccurateRip, FLAC -8" %source%
TOC of the extracted CD
Track | Start | Length | Start sector | End sector
---------------------------------------------------------
1 | 0:00.00 | 7:58.10 | 0 | 35859
2 | 7:58.10 | 4:06.42 | 35860 | 54351
3 | 12:04.52 | 4:41.16 | 54352 | 75442
4 | 16:45.68 | 7:17.44 | 75443 | 108261
5 | 24:03.37 | 5:26.06 | 108262 | 132717
6 | 29:29.43 | 6:02.47 | 132718 | 159914
7 | 35:32.15 | 2:16.67 | 159915 | 170181
8 | 37:49.07 | 8:57.45 | 170182 | 210501
Range status and errors
Selected range
Filename F:\audio\L.A. 4 - The L.A. Four Scores!.wav
Peak level 96.9 %
Extraction speed 5.4 X
Range quality 100.0 %
Test CRC C317CAC0
Copy CRC C317CAC0
Copy OK
No errors occurred
AccurateRip summary
Track 1 accurately ripped (confidence 2) [DE831F26] (AR v2)
Track 2 accurately ripped (confidence 2) [FA83CACE] (AR v2)
Track 3 accurately ripped (confidence 2) [D2E83E6A] (AR v2)
Track 4 accurately ripped (confidence 2) [CE906FB2] (AR v2)
Track 5 accurately ripped (confidence 2) [AE559BC7] (AR v2)
Track 6 accurately ripped (confidence 2) [D2E8098C] (AR v2)
Track 7 accurately ripped (confidence 2) [1CC2F0C6] (AR v2)
Track 8 accurately ripped (confidence 2) [15CAF099] (AR v2)
All tracks accurately ripped
End of status report
---- CUETools DB Plugin V2.1.4
[CTDB TOCID: hWsDiZln0rPhzsDTeYCdZp.GiYE-] found
Submit result: hWsDiZln0rPhzsDTeYCdZp.GiYE- has been confirmed
Track | CTDB Status
1 | (1/1) Accurately ripped
2 | (1/1) Accurately ripped
3 | (1/1) Accurately ripped
4 | (1/1) Accurately ripped
5 | (1/1) Accurately ripped
6 | (1/1) Accurately ripped
7 | (1/1) Accurately ripped
8 | (1/1) Accurately ripped
==== Log checksum 69A8C8A276CA71B654906BF36C165EBFCC5FE4A07AFC7008F73EC6BD52AD9E86 ====
 
Содержание индексной карты (.CUE)
REM GENRE Jazz
REM DATE 1975
REM DISCID 590AF608
REM COMMENT "ExactAudioCopy v1.0b4"
PERFORMER "L.A. 4"
TITLE "The L.A. Four Scores!"
FILE "L.A. 4 - The L.A. Four Scores!.wav" WAVE
TRACK 01 AUDIO
TITLE "Sundancers"
PERFORMER "L.A. 4"
INDEX 01 00:00:00
TRACK 02 AUDIO
TITLE "Carioca Hills"
PERFORMER "L.A. 4"
INDEX 01 07:58:10
TRACK 03 AUDIO
TITLE "Allemande and Fox"
PERFORMER "L.A. 4"
INDEX 01 12:04:52
TRACK 04 AUDIO
TITLE "Berimbau Carioca"
PERFORMER "L.A. 4"
INDEX 01 16:45:68
TRACK 05 AUDIO
TITLE "Cielo"
PERFORMER "L.A. 4"
INDEX 00 24:02:69
INDEX 01 24:03:37
TRACK 06 AUDIO
TITLE "Prelude, Op.28 No.4/How Insensitive"
PERFORMER "L.A. 4"
INDEX 01 29:29:43
TRACK 07 AUDIO
TITLE "Old Time Rag"
PERFORMER "L.A. 4"
INDEX 01 35:32:15
TRACK 08 AUDIO
TITLE "Manha de Carnaval"
PERFORMER "L.A. 4"
INDEX 01 37:49:07
 
Отчет CUETools
[CUETools log; Date: 13.02.2015 19:07:17; Version: 2.1.5]
[CTDB TOCID: hWsDiZln0rPhzsDTeYCdZp.GiYE-] found.
Track | CTDB Status
1 | (2/2) Accurately ripped
2 | (2/2) Accurately ripped
3 | (2/2) Accurately ripped
4 | (2/2) Accurately ripped
5 | (2/2) Accurately ripped
6 | (2/2) Accurately ripped
7 | (2/2) Accurately ripped
8 | (2/2) Accurately ripped
[AccurateRip ID: 000e7422-005f5c4a-590af608] found.
Track [ CRC | V2 ] Status
01 [4de74895|de831f26] (0+2/2) Accurately ripped
02 [98ed2fae|fa83cace] (0+2/2) Accurately ripped
03 [4a706346|d2e83e6a] (0+2/2) Accurately ripped
04 [f6dff8ea|ce906fb2] (0+2/2) Accurately ripped
05 [c7792a18|ae559bc7] (0+2/2) Accurately ripped
06 [51a96b3a|d2e8098c] (0+2/2) Accurately ripped
07 [7da7e81b|1cc2f0c6] (0+2/2) Accurately ripped
08 [bea403f2|15caf099] (0+2/2) Accurately ripped
Track Peak [ CRC32 ] [W/O NULL] [ LOG ]
-- 96,9 [C317CAC0] [57ACBB16] CRC32
01 96,9 [39B79A6B] [206221E4]
02 96,9 [E63F513D] [807DCA07]
03 96,9 [FA1DE6F7] [1E48AAA1]
04 96,9 [177FC15D] [43944B60]
05 96,9 [F9F532F9] [7F8AD7BF]
06 96,4 [53BDCFF3] [4599DD1A]
07 88,8 [06E3A884] [8A243A41]
08 96,9 [94452D6E] [B2DFD989]
 
Review by Scott Yanow
Altoist Bud Shank (who doubles on flute) and acoustic guitarist Laurindo Almeida first teamed up in 1954 to make a couple of albums called Brazilliance that hinted at but greatly predated bossa nova. Shank and Almeida came together 20 years later to form the L.A. Four, a quartet also including bassist Ray Brown and drummer Shelly Manne. Their debut recording as a unit was made at the 1974 Concord Jazz Festival, and it finds the appealing musicians blending together well on bossa nova tunes (including "Manha de Carnaval"), Almeida's classical-oriented originals, and some swing. This was a particularly inventive chamber jazz band.
Any questions - support@pro-jazz.com.
Есть вопросы - support@pro-jazz.com
17:45
227
Нет комментариев. Ваш будет первым!