Поиск

(Bossa Nova) [CD] Stan Getz & Joao Gilberto (feat. Antonio Carlos Jobim) - Getz/Gilberto - 1963 (2011 Analogue), FLAC (tracks+.cue), lossless

(Bossa Nova) [CD] Stan Getz & Joao Gilberto (feat. Antonio Carlos Jobim) - Getz/Gilberto - 1963 (2011 Analogue), FLAC (tracks+.cue), lossless
Треклист:
Stan Getz & Joao Gilberto (feat. Antonio Carlos Jobim) - Getz/Gilberto
Жанр: Bossa Nova
Носитель: CD
Страна-производитель диска: США
Год издания: 2011
Издатель (лейбл): Analogue Productions
Номер по каталогу: CVRJ 8545 SA
Аудиокодек: FLAC (*.flac)
Тип рипа: tracks+.cue
Битрейт аудио: lossless
Продолжительность: 33:46
Источник (релизер): moonlapse (what)
Наличие сканов в содержимом раздачи: да
Треклист:
01. The Girl from Ipanema (Jobim-De Moraes-Gimbel) - 5:21
02. Doralice (Caymmi-Almeida) - 2:47
03. P'ra machucar meu coracao (Barroso) - 5:07
04. Desafinado (Jobim-Mendonca) - 4:09
05. Corcovado (Jobim-Lees) - 4:17
06. So danco samba (Jobim-De Moraes) - 3:42
07. O grande amor (Jobim-De Moraes) - 5:27
08. Vivo sonhando (Jobim) - 2:56
Состав:
Stan Getz - tenor saxophone
Joao Gilberto - guitar, vocals
Antonio Carlos Jobim - piano
Sebastiao Neto - bass
Milton Banana - drums
Astrud Gilberto - vocals (#1,5)
Recorded at A&R Recording Studios, New York on March 18–19, 1963.
 
Лог создания рипа
Exact Audio Copy V1.0 beta 3 from 29. August 2011
EAC extraction logfile from 28. January 2014, 18:45
Stan Getz & João Gilberto feat. Antonio Carlos Jobim / Getz/Gilberto
Used drive : TSSTcorpDVDWBD SH-B123L Adapter: 4 ID: 0
Read mode : Secure
Utilize accurate stream : Yes
Defeat audio cache : Yes
Make use of C2 pointers : No
Read offset correction : 6
Overread into Lead-In and Lead-Out : No
Fill up missing offset samples with silence : Yes
Delete leading and trailing silent blocks : No
Null samples used in CRC calculations : Yes
Used interface : Native Win32 interface for Win NT & 2000
Gap handling : Appended to previous track
Used output format : User Defined Encoder
Selected bitrate : 1024 kBit/s
Quality : High
Add ID3 tag : No
Command line compressor : C:\Program Files (x86)\Exact Audio Copy\Flac\flac.exe
Additional command line options : -8 -V -T "ARTIST=%artist%" -T "TITLE=%title%" -T "ALBUM=%albumtitle%" -T "DATE=%year%" -T "TRACKNUMBER=%tracknr%" -T "GENRE=%genre%" -T "PERFORMER=%albuminterpret%" -T "COMPOSER=%composer%" %haslyrics%--tag-from-file=LYRICS="%lyricsfile%"%haslyrics% -T "ALBUMARTIST=%albumartist%" -T "DISCNUMBER=%cdnumber%" -T "TOTALDISCS=%totalcds%" -T "TOTALTRACKS=%numtracks%" -T "COMMENT=%comment%" %source% -o %dest%
TOC of the extracted CD
Track | Start | Length | Start sector | End sector
---------------------------------------------------------
1 | 0:00.00 | 5:21.21 | 0 | 24095
2 | 5:21.21 | 2:47.07 | 24096 | 36627
3 | 8:08.28 | 5:07.07 | 36628 | 59659
4 | 13:15.35 | 4:08.38 | 59660 | 78297
5 | 17:23.73 | 4:17.05 | 78298 | 97577
6 | 21:41.03 | 3:41.67 | 97578 | 114219
7 | 25:22.70 | 5:27.33 | 114220 | 138777
8 | 30:50.28 | 2:55.59 | 138778 | 151961
Track 1
Filename E:\Stan Getz & João Gilberto feat. Antonio Carlos Jobim - 1964 - Getz,Gilberto\01 The Girl From Ipanema.wav
Pre-gap length 0:00:02.00
Peak level 80.5 %
Extraction speed 4.3 X
Track quality 100.0 %
Test CRC D1642DE3
Copy CRC D1642DE3
Accurately ripped (confidence 14) [E26CFBE9] (AR v2)
Copy OK
Track 2
Filename E:\Stan Getz & João Gilberto feat. Antonio Carlos Jobim - 1964 - Getz,Gilberto\02 Doralice.wav
Peak level 85.7 %
Extraction speed 4.2 X
Track quality 100.0 %
Test CRC B3F83BCC
Copy CRC B3F83BCC
Accurately ripped (confidence 13) [2493A238] (AR v2)
Copy OK
Track 3
Filename E:\Stan Getz & João Gilberto feat. Antonio Carlos Jobim - 1964 - Getz,Gilberto\03 Para machucar meu coração.wav
Peak level 80.6 %
Extraction speed 4.2 X
Track quality 99.9 %
Test CRC E454D0F8
Copy CRC E454D0F8
Accurately ripped (confidence 13) [01BE234F] (AR v2)
Copy OK
Track 4
Filename E:\Stan Getz & João Gilberto feat. Antonio Carlos Jobim - 1964 - Getz,Gilberto\04 Desafinado.wav
Peak level 87.6 %
Extraction speed 5.2 X
Track quality 100.0 %
Test CRC 79FCAFC6
Copy CRC 79FCAFC6
Accurately ripped (confidence 14) [4BC09248] (AR v2)
Copy OK
Track 5
Filename E:\Stan Getz & João Gilberto feat. Antonio Carlos Jobim - 1964 - Getz,Gilberto\05 Corcovado.wav
Peak level 70.4 %
Extraction speed 5.6 X
Track quality 100.0 %
Test CRC A4C25266
Copy CRC A4C25266
Accurately ripped (confidence 14) [91893204] (AR v2)
Copy OK
Track 6
Filename E:\Stan Getz & João Gilberto feat. Antonio Carlos Jobim - 1964 - Getz,Gilberto\06 Só danço samba.wav
Peak level 75.3 %
Extraction speed 5.7 X
Track quality 100.0 %
Test CRC F48773DD
Copy CRC F48773DD
Accurately ripped (confidence 14) [A31B51B0] (AR v2)
Copy OK
Track 7
Filename E:\Stan Getz & João Gilberto feat. Antonio Carlos Jobim - 1964 - Getz,Gilberto\07 O grande amor.wav
Peak level 77.3 %
Extraction speed 6.3 X
Track quality 100.0 %
Test CRC 3569C614
Copy CRC 3569C614
Accurately ripped (confidence 13) [7BE73CA5] (AR v2)
Copy OK
Track 8
Filename E:\Stan Getz & João Gilberto feat. Antonio Carlos Jobim - 1964 - Getz,Gilberto\08 Vivo sonhando.wav
Peak level 81.6 %
Extraction speed 6.0 X
Track quality 100.0 %
Test CRC F46119AE
Copy CRC F46119AE
Accurately ripped (confidence 13) [20B3C036] (AR v2)
Copy OK
All tracks accurately ripped
No errors occurred
End of status report
---- CUETools DB Plugin V2.1.3
[CTDB TOCID: 6OPyXpHXofmo8JGR2LcmqMejAu4-] found, Submit result: 6OPyXpHXofmo8JGR2LcmqMejAu4- has been confirmed
[39fbcc36] (6/6) Accurately ripped
==== Log checksum 3EC4A587D2DB433515CFDFBADCA9C29BC35B528B06D6BE0F7BA6593BA72E13C3 ====
 
Содержание индексной карты (.CUE)
REM GENRE Jazz
REM DATE 1963
REM DISCID 5B07EA08
REM COMMENT "ExactAudioCopy v1.0b3"
PERFORMER "Stan Getz & Joao Gilberto"
TITLE "Getz/Gilberto"
FILE "01 - The Girl from Ipanema.wav" WAVE
TRACK 01 AUDIO
TITLE "The Girl from Ipanema"
PERFORMER "Stan Getz & Joao Gilberto"
INDEX 01 00:00:00
FILE "02 - Doralice.wav" WAVE
TRACK 02 AUDIO
TITLE "Doralice"
PERFORMER "Stan Getz & Joao Gilberto"
INDEX 01 00:00:00
FILE "03 - P'ra machucar meu coracao.wav" WAVE
TRACK 03 AUDIO
TITLE "P'ra machucar meu coracao"
PERFORMER "Stan Getz & Joao Gilberto"
INDEX 01 00:00:00
FILE "04 - Desafinado.wav" WAVE
TRACK 04 AUDIO
TITLE "Desafinado"
PERFORMER "Stan Getz & Joao Gilberto"
INDEX 01 00:00:00
FILE "05 - Corcovado.wav" WAVE
TRACK 05 AUDIO
TITLE "Corcovado"
PERFORMER "Stan Getz & Joao Gilberto"
INDEX 01 00:00:00
FILE "06 - So danco samba.wav" WAVE
TRACK 06 AUDIO
TITLE "So danco samba"
PERFORMER "Stan Getz & Joao Gilberto"
INDEX 01 00:00:00
FILE "07 - O grande amor.wav" WAVE
TRACK 07 AUDIO
TITLE "O grande amor"
PERFORMER "Stan Getz & Joao Gilberto"
INDEX 01 00:00:00
FILE "08 - Vivo sonhando.wav" WAVE
TRACK 08 AUDIO
TITLE "Vivo sonhando"
PERFORMER "Stan Getz & Joao Gilberto"
INDEX 01 00:00:00
 
Отчет CUETools
[CUETools log; Date: 02.02.2014 23:27:15; Version: 2.1.4]
[CTDB TOCID: 6OPyXpHXofmo8JGR2LcmqMejAu4-] found.
Track | CTDB Status
1 | (7/7) Accurately ripped
2 | (7/7) Accurately ripped
3 | (7/7) Accurately ripped
4 | (7/7) Accurately ripped
5 | (7/7) Accurately ripped
6 | (7/7) Accurately ripped
7 | (7/7) Accurately ripped
8 | (7/7) Accurately ripped
[AccurateRip ID: 000ab324-0046f859-5b07ea08] found.
Track [ CRC | V2 ] Status
01 [115cd832|e26cfbe9] (00+14/14) Accurately ripped
02 [8d69caeb|2493a238] (00+13/13) Accurately ripped
03 [bb1529f6|01be234f] (00+13/13) Accurately ripped
04 [3c23cae9|4bc09248] (00+14/14) Accurately ripped
05 [df8b742c|91893204] (00+14/14) Accurately ripped
06 [f9460294|a31b51b0] (00+14/14) Accurately ripped
07 [c470e8b3|7be73ca5] (00+13/13) Accurately ripped
08 [4dadea1c|20b3c036] (00+13/13) Accurately ripped
Track Peak [ CRC32 ] [W/O NULL] [ LOG ]
-- 87,6 [D9F89735] [0AD0835C]
01 80,5 [D1642DE3] [D037F848] CRC32
02 85,7 [B3F83BCC] [8CE32B3B] CRC32
03 80,6 [E454D0F8] [70FC88E0] CRC32
04 87,6 [79FCAFC6] [9BD5FBBC] CRC32
05 70,4 [A4C25266] [06507C33] CRC32
06 75,3 [F48773DD] [91730BF2] CRC32
07 77,3 [3569C614] [DA8C1A71] CRC32
08 81,6 [F46119AE] [F3020558] CRC32
 
Об альбоме (сборнике)
The original master tapes for this title had not been used since 1980 previous to this reissue. Also, for this Analogue Productions reissue the decision was made to master and present this album as it was originally mixed to master tape. With very few exceptions all versions of this title to date, including the original, have had the channels incorrectly reversed. With this version, you'll hear this title as it was intended to be heard, without the channels reversed. And again, those reissues you've heard up until now - definitely still breathy, warm and rich - were made from something less than the master. Prepare to hear the veil removed.
Astrud Gilberto says that her husband, Joao, informed Stan Getz that she "could sing at the recording." Creed Taylor recalls that it took Getz's wife, Monica, to get both Astrud and Joao into the recording studio; Mrs. Getz had a sense that Astrud could make a hit. And Getz himself is on record saying that he insisted on Astrud's presence over the others' objections. So who's right? What does it matter? The Gilbertos, Getz and the legendary Antonio Carlos Jobim followed up the bossa nova success of Jazz Samba with this, the defining LP of the genre. With one of the greatest hit singles jazz has ever known - each one who hears it goes "Ahhh!"
14:29
539
Нет комментариев. Ваш будет первым!