Поиск

(Bossa Nova) [CD] Stan Getz & Joao Gilberto (feat. Antonio Carlos Jobim) - Getz/Gilberto - 1963 (1989), FLAC (tracks+.cue), lossless

(Bossa Nova) [CD] Stan Getz & Joao Gilberto (feat. Antonio Carlos Jobim) - Getz/Gilberto - 1963 (1989), FLAC (tracks+.cue), lossless
Треклист:
Stan Getz & Joao Gilberto (feat. Antonio Carlos Jobim) - Getz/Gilberto
Жанр: Bossa Nova
Носитель: CD
Страна-производитель диска: Германия
Год издания: 1989
Издатель (лейбл): Verve
Номер по каталогу: 810 048-2
Страна: США
Аудиокодек: FLAC (*.flac)
Тип рипа: tracks+.cue
Битрейт аудио: lossless
Продолжительность: 34:07
Источник (релизер): bluepanther (what)
Наличие сканов в содержимом раздачи: да
Треклист:
01. The Girl from Ipanema (Jobim-De Moraes-Gimbel) - 5:22
02. Doralice (Caymmi-Almeida)- 2:50
03. Para machucar meu coracao (Barroso) - 5:13
04. Desafinado (Jobim-Mendonca) - 4:12
05. Corcovado (Jobim-Lees) - 4:22
06. So danco samba (Jobim-De Moraes) - 3:38
07. O grande amor (Jobim-De Moraes) - 5:34
08. Vivo sonhando (Jobim) - 2:56
Состав:
Stan Getz - tenor saxophone
Joao Gilberto - guitar, vocals
Antonio Carlos Jobim - piano
Sebastiao Neto - bass
Milton Banana - drums
Astrud Gilberto - vocals (#1,5)
Recorded at A&R Recording Studios, New York on March 18–19, 1963.
 
Лог создания рипа
Exact Audio Copy V1.0 beta 3 from 29. August 2011
EAC extraction logfile from 7. November 2013, 19:10
Stan Getz & João Gilberto / Getz - Gilberto
Used drive : ATAPI iHAS324 B Adapter: 0 ID: 1
Read mode : Secure
Utilize accurate stream : Yes
Defeat audio cache : Yes
Make use of C2 pointers : No
Read offset correction : 6
Overread into Lead-In and Lead-Out : No
Fill up missing offset samples with silence : Yes
Delete leading and trailing silent blocks : No
Null samples used in CRC calculations : Yes
Used interface : Native Win32 interface for Win NT & 2000
Gap handling : Appended to previous track
Used output format : User Defined Encoder
Selected bitrate : 1024 kBit/s
Quality : High
Add ID3 tag : No
Command line compressor : F:\Exact Audio Copy\Flac\flac.exe
Additional command line options : -8 -V -T "ARTIST=%artist%" -T "TITLE=%title%" -T "ALBUM=%albumtitle%" -T "DATE=%year%" -T "TRACKNUMBER=%tracknr%" -T "GENRE=%genre%" -T "PERFORMER=%albuminterpret%" -T "COMPOSER=%composer%" %haslyrics%--tag-from-file=LYRICS="%lyricsfile%"%haslyrics% -T "ALBUMARTIST=%albumartist%" -T "DISCNUMBER=%cdnumber%" -T "TOTALDISCS=%totalcds%" -T "TOTALTRACKS=%numtracks%" -T "COMMENT=%comment%" %source% -o %dest%
TOC of the extracted CD
Track | Start | Length | Start sector | End sector
---------------------------------------------------------
1 | 0:00.32 | 5:22.03 | 32 | 24184
2 | 5:22.35 | 2:50.02 | 24185 | 36936
3 | 8:12.37 | 5:13.18 | 36937 | 60429
4 | 13:25.55 | 4:11.60 | 60430 | 79314
5 | 17:37.40 | 4:21.67 | 79315 | 98956
6 | 21:59.32 | 3:37.55 | 98957 | 115286
7 | 25:37.12 | 5:34.13 | 115287 | 140349
8 | 31:11.25 | 2:55.40 | 140350 | 153514
Track 1
Filename H:\EAC RIPs\Upload\Stan Getz & João Gilberto - Getz - Gilberto (1989) [FLAC]\01 - The Girl From Ipanema.wav
Pre-gap length 0:00:02.42
Peak level 81.0 %
Extraction speed 3.0 X
Track quality 99.9 %
Test CRC F0BCC7CB
Copy CRC F0BCC7CB
Accurately ripped (confidence 11) [B1BDC586] (AR v2)
Copy OK
Track 2
Filename H:\EAC RIPs\Upload\Stan Getz & João Gilberto - Getz - Gilberto (1989) [FLAC]\02 - Doralice.wav
Pre-gap length 0:00:02.00
Peak level 98.1 %
Extraction speed 3.6 X
Track quality 100.0 %
Test CRC C1F89EEE
Copy CRC C1F89EEE
Accurately ripped (confidence 11) [E53A41BE] (AR v2)
Copy OK
Track 3
Filename H:\EAC RIPs\Upload\Stan Getz & João Gilberto - Getz - Gilberto (1989) [FLAC]\03 - Para Machucar Meu Coraçao.wav
Pre-gap length 0:00:01.98
Peak level 70.7 %
Extraction speed 4.3 X
Track quality 100.0 %
Test CRC E6FF9B92
Copy CRC E6FF9B92
Accurately ripped (confidence 11) [14D5C996] (AR v2)
Copy OK
Track 4
Filename H:\EAC RIPs\Upload\Stan Getz & João Gilberto - Getz - Gilberto (1989) [FLAC]\04 - Desafinado.wav
Pre-gap length 0:00:02.00
Peak level 85.4 %
Extraction speed 4.6 X
Track quality 100.0 %
Test CRC DBD3D6CD
Copy CRC DBD3D6CD
Accurately ripped (confidence 11) [A2F32CB4] (AR v2)
Copy OK
Track 5
Filename H:\EAC RIPs\Upload\Stan Getz & João Gilberto - Getz - Gilberto (1989) [FLAC]\05 - Corcovado.wav
Pre-gap length 0:00:01.98
Peak level 78.5 %
Extraction speed 4.8 X
Track quality 100.0 %
Test CRC 34FD1541
Copy CRC 34FD1541
Accurately ripped (confidence 11) [0521E85B] (AR v2)
Copy OK
Track 6
Filename H:\EAC RIPs\Upload\Stan Getz & João Gilberto - Getz - Gilberto (1989) [FLAC]\06 - So Danço Samba.wav
Pre-gap length 0:00:01.97
Peak level 97.6 %
Extraction speed 5.0 X
Track quality 100.0 %
Test CRC DB868264
Copy CRC DB868264
Accurately ripped (confidence 11) [56CECFFA] (AR v2)
Copy OK
Track 7
Filename H:\EAC RIPs\Upload\Stan Getz & João Gilberto - Getz - Gilberto (1989) [FLAC]\07 - O Grande Amor.wav
Pre-gap length 0:00:01.98
Peak level 82.4 %
Extraction speed 5.5 X
Track quality 100.0 %
Test CRC B9BE672B
Copy CRC B9BE672B
Accurately ripped (confidence 11) [49152065] (AR v2)
Copy OK
Track 8
Filename H:\EAC RIPs\Upload\Stan Getz & João Gilberto - Getz - Gilberto (1989) [FLAC]\08 - Vivo Sohando.wav
Pre-gap length 0:00:02.00
Peak level 80.6 %
Extraction speed 2.4 X
Track quality 99.7 %
Test CRC 7D360FCE
Copy CRC 7D360FCE
Cannot be verified as accurate (confidence 18) [712A061D], AccurateRip returned [FBE16460] (AR v2)
Copy OK
7 track(s) accurately ripped
1 track(s) could not be verified as accurate
Some tracks could not be verified as accurate
No errors occurred
End of status report
==== Log checksum 41208AF80FF187BA5011685287F9C7B468C7B69A8CC33F399302654BAD440288 ====
 
Содержание индексной карты (.CUE)
REM GENRE Jazz
REM DATE 1963
REM DISCID 6607FE08
REM COMMENT "ExactAudioCopy v1.0b3"
CATALOG 0042281004827
PERFORMER "Stan Getz & Joao Gilberto"
TITLE "Getz/Gilberto"
FILE "01 - The Girl from Ipanema.wav" WAVE
TRACK 01 AUDIO
TITLE "The Girl from Ipanema"
PERFORMER "Stan Getz & Joao Gilberto"
ISRC USF096400010
PREGAP 00:00:32
INDEX 01 00:00:00
TRACK 02 AUDIO
TITLE "Doralice"
PERFORMER "Stan Getz & Joao Gilberto"
ISRC USF096400020
INDEX 00 05:20:03
FILE "02 - Doralice.wav" WAVE
INDEX 01 00:00:00
TRACK 03 AUDIO
TITLE "Para machucar meu coracao"
PERFORMER "Stan Getz & Joao Gilberto"
ISRC USF096400030
INDEX 00 02:48:03
FILE "03 - Para machucar meu coracao.wav" WAVE
INDEX 01 00:00:00
TRACK 04 AUDIO
TITLE "Desafinado"
PERFORMER "Stan Getz & Joao Gilberto"
ISRC USF096400040
INDEX 00 05:11:18
FILE "04 - Desafinado.wav" WAVE
INDEX 01 00:00:00
TRACK 05 AUDIO
TITLE "Corcovado"
PERFORMER "Stan Getz & Joao Gilberto"
ISRC USF096400050
INDEX 00 04:09:61
FILE "05 - Corcovado.wav" WAVE
INDEX 01 00:00:00
TRACK 06 AUDIO
TITLE "So danco samba"
PERFORMER "Stan Getz & Joao Gilberto"
ISRC USF096400060
INDEX 00 04:19:69
FILE "06 - So danco samba.wav" WAVE
INDEX 01 00:00:00
TRACK 07 AUDIO
TITLE "O grande amor"
PERFORMER "Stan Getz & Joao Gilberto"
ISRC USF096400070
INDEX 00 03:35:56
FILE "07 - O grande amor.wav" WAVE
INDEX 01 00:00:00
TRACK 08 AUDIO
TITLE "Vivo sonhando"
PERFORMER "Stan Getz & Joao Gilberto"
ISRC USF096400080
INDEX 00 05:32:13
FILE "08 - Vivo sonhando.wav" WAVE
INDEX 01 00:00:00
 
Отчет CUETools
[CUETools log; Date: 03.02.2014 1:13:40; Version: 2.1.4]
Pregap length 00:00:32.
[CTDB TOCID: el2X_wc5S64VXQINW6ssdziup28-] disk not present in database.
[AccurateRip ID: 000ad190-0047c1e6-6607fe08] found.
Track [ CRC | V2 ] Status
01 [4b235873|b1bdc586] (17+12/29) Accurately ripped
02 [91bb83ca|e53a41be] (18+12/30) Accurately ripped
03 [10a5bffa|14d5c996] (18+12/30) Accurately ripped
04 [30ee00d4|a2f32cb4] (18+12/30) Accurately ripped
05 [5fa4a9cc|0521e85b] (18+12/30) Accurately ripped
06 [6b4e5bff|56cecffa] (18+12/30) Accurately ripped
07 [0b0170ea|49152065] (18+12/30) Accurately ripped
08 [fa67719f|712a061d] (00+00/29) No match
Track Peak [ CRC32 ] [W/O NULL] [ LOG ]
-- 98,1 [98474D16] [50D03F8E]
01 81,0 [F0BCC7CB] [D792B1C6] CRC32
02 98,1 [C1F89EEE] [F4C7960E] CRC32
03 70,7 [E6FF9B92] [2E4BF26C] CRC32
04 85,4 [DBD3D6CD] [2B22778D] CRC32
05 78,5 [34FD1541] [2D8EF064] CRC32
06 97,6 [DB868264] [9E8A6AC8] CRC32
07 82,4 [B9BE672B] [437CB5A5] CRC32
08 80,6 [7D360FCE] [DCBAC027] CRC32
 
Review by Steve Huey
One of the biggest-selling jazz albums of all time, not to mention bossa nova's finest moment, Getz/Gilberto trumped Jazz Samba by bringing two of bossa nova's greatest innovators -- guitarist/singer João Gilberto and composer/pianist Antonio Carlos Jobim -- to New York to record with Stan Getz. The results were magic. Ever since Jazz Samba, the jazz marketplace had been flooded with bossa nova albums, and the overexposure was beginning to make the music seem like a fad. Getz/Gilberto made bossa nova a permanent part of the jazz landscape not just with its unassailable beauty, but with one of the biggest smash hit singles in jazz history -- "The Girl From Ipanema," a Jobim classic sung by João's wife, Astrud Gilberto, who had never performed outside of her own home prior to the recording session. Beyond that, most of the Jobim songs recorded here also became standards of the genre -- "Corcovado" (which featured another vocal by Astrud), "So Danço Samba," "O Grande Amor," a new version of "Desafinado." With such uniformly brilliant material, it's no wonder the album was such a success but, even apart from that, the musicians all play with an effortless grace that's arguably the fullest expression of bossa nova's dreamy romanticism ever brought to American listeners. Getz himself has never been more lyrical, and Gilberto and Jobim pull off the harmonic and rhythmic sophistication of the songs with a warm, relaxed charm. This music has nearly universal appeal; it's one of those rare jazz records about which the purist elite and the buying public are in total agreement. Beyond essential.
13:31
492
Нет комментариев. Ваш будет первым!