Поиск

(Bossa Nova) [CD] Joao Gilberto - Best of: Portrait in Bossa Nova (1963-1990) - 1998 (Japan Edition), FLAC (tracks+.cue), lossless

(Bossa Nova) [CD] Joao Gilberto - Best of: Portrait in Bossa Nova (1963-1990) - 1998 (Japan Edition), FLAC (tracks+.cue), lossless
Треклист:
Joao Gilberto - Best of: Portrait in Bossa Nova
Жанр: Bossa Nova
Носитель: CD
Страна-производитель диска: Япония
Год издания: 1998
Издатель (лейбл): Mercury
Номер по каталогу: UCCM-4013
Аудиокодек: FLAC (*.flac)
Тип рипа: tracks+.cue
Битрейт аудио: lossless
Продолжительность: 79:35
Источник (релизер): JJKWCD (what)
Наличие сканов в содержимом раздачи: да
Треклист:
01. Eu Vim da Bahia (5:53)
02. Palpite Infeliz (3:52)
03. The Girl from Ipanema (5:11)
04. Sampa (5:02)
05. Vivo Sonhando (2:57)
06. Besame Mucho (2:43)
07. Una Mujer (3:44)
08. Eu Quero Um Samba (4:45)
09. Corcovado (4:13)
10. De Conversa Em Conversa (2:16)
11. Rosinha (3:53)
12. You Do Something to Me (2:40)
13. Doralice (2:44)
14. Ave Maria No Morro (4:17)
15. Isaura (5:26)
16. Desafinado (3:57)
17. Pra Machucar Meu Coracao (5:03)
18. Sorriu Pra Mim (3:06)
19. Falsa Baiana (3:45)
20. Eu Sambo Mesmo (4:08)
 
Лог создания рипа
Exact Audio Copy V1.0 beta 3 from 29. August 2011
EAC extraction logfile from 21. January 2014, 7:29
João Gilberto / Best of João Gilberto Portrait in Bossa Nova
Used drive : HL-DT-STDVDRAM GH24NS50 Adapter: 2 ID: 1
Read mode : Secure
Utilize accurate stream : Yes
Defeat audio cache : Yes
Make use of C2 pointers : No
Read offset correction : 667
Overread into Lead-In and Lead-Out : No
Fill up missing offset samples with silence : Yes
Delete leading and trailing silent blocks : No
Null samples used in CRC calculations : Yes
Used interface : Native Win32 interface for Win NT & 2000
Gap handling : Appended to previous track
Used output format : User Defined Encoder
Selected bitrate : 1024 kBit/s
Quality : High
Add ID3 tag : No
Command line compressor : D:\Program Files\FLAC\flac.exe
Additional command line options : -8 -V -T "ARTIST=%artist%" -T "TITLE=%title%" -T "ALBUM=%albumtitle%" -T "DATE=%year%" -T "TRACKNUMBER=%tracknr%" -T "GENRE=%genre%" -T "PERFORMER=%albuminterpret%" -T "COMPOSER=%composer%" %haslyrics%--tag-from-file=LYRICS="%lyricsfile%"%haslyrics% -T "ALBUMARTIST=%albumartist%" -T "DISCNUMBER=%cdnumber%" -T "TOTALDISCS=%totalcds%" -T "TOTALTRACKS=%numtracks%" -T "COMMENT=%comment%" %source% -o %dest%
TOC of the extracted CD
Track | Start | Length | Start sector | End sector
---------------------------------------------------------
1 | 0:00.00 | 5:52.57 | 0 | 26456
2 | 5:52.57 | 3:52.25 | 26457 | 43881
3 | 9:45.07 | 5:11.03 | 43882 | 67209
4 | 14:56.10 | 5:02.12 | 67210 | 89871
5 | 19:58.22 | 2:56.40 | 89872 | 103111
6 | 22:54.62 | 2:42.50 | 103112 | 115311
7 | 25:37.37 | 3:43.60 | 115312 | 132096
8 | 29:21.22 | 4:45.03 | 132097 | 153474
9 | 34:06.25 | 4:13.37 | 153475 | 172486
10 | 38:19.62 | 2:15.70 | 172487 | 182681
11 | 40:35.57 | 3:52.50 | 182682 | 200131
12 | 44:28.32 | 2:40.35 | 200132 | 212166
13 | 47:08.67 | 2:44.03 | 212167 | 224469
14 | 49:52.70 | 4:17.07 | 224470 | 243751
15 | 54:10.02 | 5:26.05 | 243752 | 268206
16 | 59:36.07 | 3:57.20 | 268207 | 286001
17 | 63:33.27 | 5:02.63 | 286002 | 308714
18 | 68:36.15 | 3:06.32 | 308715 | 322696
19 | 71:42.47 | 3:44.65 | 322697 | 339561
20 | 75:27.37 | 4:07.55 | 339562 | 358141
Track 1
Filename D:\01 - Eu Vim Da Bahia.wav
Pre-gap length 0:00:02.00
Peak level 100.0 %
Extraction speed 1.2 X
Track quality 100.0 %
Test CRC A01831EB
Copy CRC A01831EB
Cannot be verified as accurate (confidence 4) [DB542A78], AccurateRip returned [02534F17] (AR v2)
Copy OK
Track 2
Filename D:\02 - Palpite Infeliz.wav
Pre-gap length 0:00:01.09
Peak level 100.0 %
Extraction speed 1.3 X
Track quality 100.0 %
Test CRC FA01C584
Copy CRC FA01C584
Cannot be verified as accurate (confidence 4) [8A5B50D8], AccurateRip returned [C67CD011] (AR v2)
Copy OK
Track 3
Filename D:\03 - The Girl From Ipanema.wav
Pre-gap length 0:00:01.11
Peak level 100.0 %
Extraction speed 1.5 X
Track quality 100.0 %
Test CRC A5C75DCB
Copy CRC A5C75DCB
Cannot be verified as accurate (confidence 4) [4DB43F1D], AccurateRip returned [960D18B6] (AR v2)
Copy OK
Track 4
Filename D:\04 - Sampa.wav
Pre-gap length 0:00:01.09
Peak level 100.0 %
Extraction speed 1.6 X
Track quality 100.0 %
Test CRC 661097BB
Copy CRC 661097BB
Cannot be verified as accurate (confidence 4) [55A6C29B], AccurateRip returned [FA915EF8] (AR v2)
Copy OK
Track 5
Filename D:\05 - Vivo Sonhando.wav
Pre-gap length 0:00:01.09
Peak level 100.0 %
Extraction speed 1.5 X
Track quality 100.0 %
Test CRC 907D56EF
Copy CRC 907D56EF
Cannot be verified as accurate (confidence 4) [B717A1E0], AccurateRip returned [2F2E5B7D] (AR v2)
Copy OK
Track 6
Filename D:\06 - Besame Mucho.wav
Pre-gap length 0:00:01.09
Peak level 100.0 %
Extraction speed 1.3 X
Track quality 99.9 %
Test CRC 941861F0
Copy CRC 941861F0
Cannot be verified as accurate (confidence 4) [DF4DF1BB], AccurateRip returned [27044B03] (AR v2)
Copy OK
Track 7
Filename D:\07 - Una Mujer.wav
Pre-gap length 0:00:01.09
Peak level 100.0 %
Extraction speed 1.7 X
Track quality 100.0 %
Test CRC 34E11E19
Copy CRC 34E11E19
Cannot be verified as accurate (confidence 4) [FA4B223E], AccurateRip returned [C345BFCE] (AR v2)
Copy OK
Track 8
Filename D:\08 - Eu Quero Um Samba.wav
Pre-gap length 0:00:01.11
Peak level 99.5 %
Extraction speed 1.8 X
Track quality 100.0 %
Test CRC 9E53FF70
Copy CRC 9E53FF70
Cannot be verified as accurate (confidence 4) [477119DA], AccurateRip returned [01F8B1BF] (AR v2)
Copy OK
Track 9
Filename D:\09 - Corcovado.wav
Pre-gap length 0:00:01.09
Peak level 100.0 %
Extraction speed 1.9 X
Track quality 100.0 %
Test CRC BC8DD31D
Copy CRC BC8DD31D
Cannot be verified as accurate (confidence 4) [8FBF1489], AccurateRip returned [9A36847D] (AR v2)
Copy OK
Track 10
Filename D:\10 - De Conversa Em Conversa.wav
Pre-gap length 0:00:01.09
Peak level 100.0 %
Extraction speed 1.8 X
Track quality 100.0 %
Test CRC C6CF3FA1
Copy CRC C6CF3FA1
Cannot be verified as accurate (confidence 4) [2B8A7CE5], AccurateRip returned [3377A94C] (AR v2)
Copy OK
Track 11
Filename D:\11 - Rosinha.wav
Pre-gap length 0:00:01.09
Peak level 100.0 %
Extraction speed 2.0 X
Track quality 100.0 %
Test CRC D4B7238E
Copy CRC D4B7238E
Cannot be verified as accurate (confidence 4) [21E2551F], AccurateRip returned [D0E54163] (AR v2)
Copy OK
Track 12
Filename D:\12 - You Do Something To Me.wav
Pre-gap length 0:00:01.09
Peak level 100.0 %
Extraction speed 1.9 X
Track quality 100.0 %
Test CRC 8C373C82
Copy CRC 8C373C82
Cannot be verified as accurate (confidence 4) [AAF8CD2D], AccurateRip returned [0FF551FA] (AR v2)
Copy OK
Track 13
Filename D:\13 - Doralice.wav
Pre-gap length 0:00:01.09
Peak level 100.0 %
Extraction speed 2.0 X
Track quality 100.0 %
Test CRC E75B42FB
Copy CRC E75B42FB
Cannot be verified as accurate (confidence 4) [F29E17FD], AccurateRip returned [BA4C241F] (AR v2)
Copy OK
Track 14
Filename D:\14 - Ave Maria No Morro.wav
Pre-gap length 0:00:01.09
Peak level 100.0 %
Extraction speed 2.2 X
Track quality 100.0 %
Test CRC CDC1D832
Copy CRC CDC1D832
Cannot be verified as accurate (confidence 4) [2F81A5FC], AccurateRip returned [3D31D88C] (AR v2)
Copy OK
Track 15
Filename D:\15 - Isaura.wav
Pre-gap length 0:00:01.09
Peak level 96.6 %
Extraction speed 1.9 X
Track quality 99.9 %
Test CRC A82D4681
Copy CRC A82D4681
Cannot be verified as accurate (confidence 4) [868F1039], AccurateRip returned [B7E7ED25] (AR v2)
Copy OK
Track 16
Filename D:\16 - Desafinado.wav
Pre-gap length 0:00:01.11
Peak level 100.0 %
Extraction speed 2.3 X
Track quality 100.0 %
Test CRC 0B433F96
Copy CRC 0B433F96
Cannot be verified as accurate (confidence 4) [24BFE98A], AccurateRip returned [4CC02021] (AR v2)
Copy OK
Track 17
Filename D:\17 - Pra Machucar Meu Coração.wav
Pre-gap length 0:00:01.09
Peak level 99.3 %
Extraction speed 2.4 X
Track quality 100.0 %
Test CRC 8A7BECFD
Copy CRC 8A7BECFD
Cannot be verified as accurate (confidence 4) [8533F19B], AccurateRip returned [22C046ED] (AR v2)
Copy OK
Track 18
Filename D:\18 - Sorriu Pra Mim.wav
Pre-gap length 0:00:01.09
Peak level 100.0 %
Extraction speed 2.3 X
Track quality 100.0 %
Test CRC 3D9AD5FC
Copy CRC 3D9AD5FC
Cannot be verified as accurate (confidence 4) [EB3C6A18], AccurateRip returned [3E707910] (AR v2)
Copy OK
Track 19
Filename D:\19 - Falsa Baiana.wav
Pre-gap length 0:00:01.11
Peak level 100.0 %
Extraction speed 2.5 X
Track quality 100.0 %
Test CRC 8786D75B
Copy CRC 8786D75B
Cannot be verified as accurate (confidence 4) [A819E467], AccurateRip returned [F30031CD] (AR v2)
Copy OK
Track 20
Filename D:\20 - Eu Sambo Mesmo.wav
Pre-gap length 0:00:01.09
Peak level 100.0 %
Extraction speed 2.6 X
Track quality 100.0 %
Test CRC 1CA8BBC7
Copy CRC 1CA8BBC7
Cannot be verified as accurate (confidence 4) [3C2CA8E7], AccurateRip returned [D09D5C6E] (AR v2)
Copy OK
No tracks could be verified as accurate
You may have a different pressing from the one(s) in the database
No errors occurred
End of status report
---- CUETools DB Plugin V2.1.3
[CTDB TOCID: _AnbfUtMcMA_u1wUZYlvRAVpaMY-] found, Submit result: _AnbfUtMcMA_u1wUZYlvRAVpaMY- has been confirmed
[2e2ff8a9] (5/7) Accurately ripped
[ebbfedb8] (1/7) Differs in 1306 samples @47:46:23,47:46:43,47:46:61,47:47:04-47:47:05,47:47:23-47:47:24,47:47:42-47:47:43,65:44:14,65:44:34-65:44:35,65:45:02,65:45:44,65:45:65-65:45:66,69:40:13-69:40:14,69:41:04,75:14:58-75:14:59,75:15:05,75:15:72-75:15:73,75:16:19-75:16:20,75:16:42-75:16:43,75:16:65,75:17:12,75:17:34-75:17:35,75:17:56-75:17:57,75:18:04,75:18:26-75:18:27,75:18:48-75:18:49,75:18:70-75:18:71,75:19:18,75:19:40,75:20:10-75:20:11
[c3fad916] (1/7) No match
You can use CUETools to repair this rip.
==== Log checksum 6ADBE9618ED1CFF67EB30EFE0E2B03BF222F3649FBE34D5CCDE3F82597723631 ====
 
Содержание индексной карты (.CUE)
REM GENRE Jazz
REM DATE 1998
REM DISCID 2C12A714
REM COMMENT "ExactAudioCopy v1.0b3"
CATALOG 4988005340337
PERFORMER "Joao Gilberto"
TITLE "Best of: Portrait in Bossa Nova"
FILE "01 - Eu Vim da Bahia.wav" WAVE
TRACK 01 AUDIO
TITLE "Eu Vim da Bahia"
PERFORMER "Joao Gilberto"
INDEX 01 00:00:00
TRACK 02 AUDIO
TITLE "Palpite Infeliz"
PERFORMER "Joao Gilberto"
INDEX 00 05:51:48
FILE "02 - Palpite Infeliz.wav" WAVE
INDEX 01 00:00:00
TRACK 03 AUDIO
TITLE "The Girl from Ipanema"
PERFORMER "Joao Gilberto"
INDEX 00 03:51:14
FILE "03 - The Girl from Ipanema.wav" WAVE
INDEX 01 00:00:00
TRACK 04 AUDIO
TITLE "Sampa"
PERFORMER "Joao Gilberto"
INDEX 00 05:09:69
FILE "04 - Sampa.wav" WAVE
INDEX 01 00:00:00
TRACK 05 AUDIO
TITLE "Vivo Sonhando"
PERFORMER "Joao Gilberto"
INDEX 00 05:01:03
FILE "05 - Vivo Sonhando.wav" WAVE
INDEX 01 00:00:00
TRACK 06 AUDIO
TITLE "Besame Mucho"
PERFORMER "Joao Gilberto"
INDEX 00 02:55:31
FILE "06 - Besame Mucho.wav" WAVE
INDEX 01 00:00:00
TRACK 07 AUDIO
TITLE "Una Mujer"
PERFORMER "Joao Gilberto"
INDEX 00 02:41:41
FILE "07 - Una Mujer.wav" WAVE
INDEX 01 00:00:00
TRACK 08 AUDIO
TITLE "Eu Quero Um Samba"
PERFORMER "Joao Gilberto"
INDEX 00 03:42:49
FILE "08 - Eu Quero Um Samba.wav" WAVE
INDEX 01 00:00:00
TRACK 09 AUDIO
TITLE "Corcovado"
PERFORMER "Joao Gilberto"
INDEX 00 04:43:69
FILE "09 - Corcovado.wav" WAVE
INDEX 01 00:00:00
TRACK 10 AUDIO
TITLE "De Conversa Em Conversa"
PERFORMER "Joao Gilberto"
INDEX 00 04:12:28
FILE "10 - De Conversa Em Conversa.wav" WAVE
INDEX 01 00:00:00
TRACK 11 AUDIO
TITLE "Rosinha"
PERFORMER "Joao Gilberto"
INDEX 00 02:14:61
FILE "11 - Rosinha.wav" WAVE
INDEX 01 00:00:00
TRACK 12 AUDIO
TITLE "You Do Something to Me"
PERFORMER "Joao Gilberto"
INDEX 00 03:51:41
FILE "12 - You Do Something to Me.wav" WAVE
INDEX 01 00:00:00
TRACK 13 AUDIO
TITLE "Doralice"
PERFORMER "Joao Gilberto"
INDEX 00 02:39:26
FILE "13 - Doralice.wav" WAVE
INDEX 01 00:00:00
TRACK 14 AUDIO
TITLE "Ave Maria No Morro"
PERFORMER "Joao Gilberto"
INDEX 00 02:42:69
FILE "14 - Ave Maria No Morro.wav" WAVE
INDEX 01 00:00:00
TRACK 15 AUDIO
TITLE "Isaura"
PERFORMER "Joao Gilberto"
INDEX 00 04:15:73
FILE "15 - Isaura.wav" WAVE
INDEX 01 00:00:00
TRACK 16 AUDIO
TITLE "Desafinado"
PERFORMER "Joao Gilberto"
INDEX 00 05:24:69
FILE "16 - Desafinado.wav" WAVE
INDEX 01 00:00:00
TRACK 17 AUDIO
TITLE "Pra Machucar Meu Coracao"
PERFORMER "Joao Gilberto"
INDEX 00 03:56:11
FILE "17 - Pra Machucar Meu Coracao.wav" WAVE
INDEX 01 00:00:00
TRACK 18 AUDIO
TITLE "Sorriu Pra Mim"
PERFORMER "Joao Gilberto"
INDEX 00 05:01:54
FILE "18 - Sorriu Pra Mim.wav" WAVE
INDEX 01 00:00:00
TRACK 19 AUDIO
TITLE "Falsa Baiana"
PERFORMER "Joao Gilberto"
INDEX 00 03:05:21
FILE "19 - Falsa Baiana.wav" WAVE
INDEX 01 00:00:00
TRACK 20 AUDIO
TITLE "Eu Sambo Mesmo"
PERFORMER "Joao Gilberto"
INDEX 00 03:43:56
FILE "20 - Eu Sambo Mesmo.wav" WAVE
INDEX 01 00:00:00
 
Отчет CUETools
[CUETools log; Date: 13.03.2014 17:04:56; Version: 2.1.4]
[CTDB TOCID: _AnbfUtMcMA_u1wUZYlvRAVpaMY-] found.
Track | CTDB Status
1 | (8/8) Accurately ripped
2 | (8/8) Accurately ripped
3 | (8/8) Accurately ripped
4 | (8/8) Accurately ripped
5 | (8/8) Accurately ripped
6 | (8/8) Accurately ripped
7 | (8/8) Accurately ripped
8 | (8/8) Accurately ripped
9 | (8/8) Accurately ripped
10 | (8/8) Accurately ripped
11 | (8/8) Accurately ripped
12 | (8/8) Accurately ripped
13 | (7/8) Accurately ripped, or (1/8) differs in 145 samples @00:37:31,00:37:51,00:37:69,00:38:12-00:38:13,00:38:31-00:38:32,00:38:50-00:38:51
14 | (8/8) Accurately ripped
15 | (8/8) Accurately ripped
16 | (7/8) Accurately ripped
17 | (7/8) Accurately ripped, or (1/8) differs in 90 samples @02:10:62,02:11:07-02:11:08,02:11:50,02:12:17,02:12:38-02:12:39
18 | (7/8) Accurately ripped, or (1/8) differs in 8 samples @01:03:73-01:03:74,01:04:64
19 | (7/8) Accurately ripped, or (1/8) differs in 1063 samples @03:32:11-03:32:12,03:32:33,03:33:25-03:33:26,03:33:47-03:33:48,03:33:70-03:33:71,03:34:18,03:34:40,03:34:62-03:34:63,03:35:09-03:35:10,03:35:32,03:35:54-03:35:55,03:36:01-03:36:02,03:36:23-03:36:24,03:36:46,03:36:68,03:37:38-03:37:39
20 | (8/8) Accurately ripped
[AccurateRip ID: 003ac0c0-03509798-2c12a714] found.
Track [ CRC | V2 ] Status
01 [f8667541|db542a78] (00+00/11) No match
02 [2b910b87|8a5b50d8] (00+00/11) No match
03 [ea48e201|4db43f1d] (00+00/11) No match
04 [b53b4eb2|55a6c29b] (00+00/11) No match
05 [ab8e1087|b717a1e0] (00+00/11) No match
06 [1267dc2b|df4df1bb] (00+00/11) No match
07 [9a8d52d8|fa4b223e] (00+00/11) No match
08 [dbd1174c|477119da] (00+00/11) No match
09 [8dd2b36d|8fbf1489] (00+00/11) No match
10 [2ad998db|2b8a7ce5] (00+00/11) No match
11 [3e323ba8|21e2551f] (00+00/09) No match
12 [634d2653|aaf8cd2d] (00+00/09) No match
13 [598fde5b|f29e17fd] (00+00/09) No match
14 [6ee4c185|2f81a5fc] (00+00/09) No match
15 [92181e68|868f1039] (00+00/09) No match
16 [4bfb72cb|24bfe98a] (00+00/09) No match
17 [d5d159f4|8533f19b] (00+00/09) No match
18 [c92c07f8|eb3c6a18] (00+00/09) No match
19 [49063ca8|a819e467] (00+00/09) No match
20 [44dcb8f0|3c2ca8e7] (00+00/09) No match
Offsetted by -44:
01 [f2bf6ea1] (02/11) Accurately ripped
02 [a802d6bf] (02/11) Accurately ripped
03 [dba409f5] (02/11) Accurately ripped
04 [423f0eee] (02/11) Accurately ripped
05 [76c8f50f] (02/11) Accurately ripped
06 [5956bb47] (02/11) Accurately ripped
07 [554d0a00] (02/11) Accurately ripped
08 [d1d5b648] (02/11) Accurately ripped
09 [7a49f605] (02/11) Accurately ripped
10 [c815bceb] (02/11) Accurately ripped
11 [eeb6a764] (02/09) Accurately ripped
12 [c283d14f] (02/09) Accurately ripped
13 [5949b317] (02/09) Accurately ripped
14 [fa88c489] (02/09) Accurately ripped
15 [e0188848] (02/09) Accurately ripped
16 [dcc7080f] (02/09) Accurately ripped
17 [7b80b65c] (02/09) Accurately ripped
18 [1aa2c360] (02/09) Accurately ripped
19 [ac3c4988] (02/09) Accurately ripped
20 [a0360780] (02/09) Accurately ripped
Offsetted by -492:
01 [44d4fca1] (00/11) No match (V2 was not tested)
02 [f82c603f] (00/11) No match (V2 was not tested)
03 [8c5b7235] (00/11) No match (V2 was not tested)
04 [af7c85ae] (00/11) No match (V2 was not tested)
05 [e920978f] (00/11) No match (V2 was not tested)
06 [b733f807] (00/11) No match (V2 was not tested)
07 [9432de80] (00/11) No match (V2 was not tested)
08 [0f1c0908] (00/11) No match (V2 was not tested)
09 [27c26d85] (00/11) No match (V2 was not tested)
10 [abee71eb] (00/11) No match (V2 was not tested)
11 [51123624] (00/09) No match (V2 was not tested)
12 [ba81e40f] (00/09) No match (V2 was not tested)
13 [6dc511d7] (00/09) No match (V2 was not tested)
14 [428311c9] (00/09) No match (V2 was not tested)
15 [401cbe48] (00/09) No match (V2 was not tested)
16 [7082c94f] (00/09) No match (V2 was not tested)
17 [b562eedc] (00/09) No match (V2 was not tested)
18 [6f5babe0] (00/09) No match (V2 was not tested)
19 [b5a86f88] (00/09) No match (V2 was not tested)
20 [44eed44f] (00/09) No match (V2 was not tested)
Offsetted by 707:
01 [5edc7129] (02/11) Accurately ripped
02 [390f7e89] (02/11) Accurately ripped
03 [5b67717c] (02/11) Accurately ripped
04 [6cd64f4b] (02/11) Accurately ripped
05 [c71bc415] (02/11) Accurately ripped
06 [ea46b84c] (02/11) Accurately ripped
07 [334a9f7e] (02/11) Accurately ripped
08 [9f1e1cb5] (02/11) Accurately ripped
09 [7c1096d7] (02/11) Accurately ripped
10 [af479b37] (02/11) Accurately ripped
11 [c6f9be61] (00/09) No match (V2 was not tested)
12 [57f030bc] (00/09) No match (V2 was not tested)
13 [b53d2cd4] (00/09) No match (V2 was not tested)
14 [654dbf9c] (00/09) No match (V2 was not tested)
15 [f2917930] (00/09) No match (V2 was not tested)
16 [46d725d2] (00/09) No match (V2 was not tested)
17 [927858ca] (00/09) No match (V2 was not tested)
18 [c378390e] (00/09) No match (V2 was not tested)
19 [662790b0] (00/09) No match (V2 was not tested)
20 [c33be7ac] (00/09) No match (V2 was not tested)
Track Peak [ CRC32 ] [W/O NULL] [ LOG ]
-- 100,0 [EB836AD0] [0EA31041]
01 100,0 [A01831EB] [7954298A] CRC32
02 100,0 [FA01C584] [0FCD9B6D] CRC32
03 100,0 [A5C75DCB] [8CAB23B3] CRC32
04 100,0 [661097BB] [CC87F233] CRC32
05 100,0 [907D56EF] [C283FDE0] CRC32
06 100,0 [941861F0] [235F4B2E] CRC32
07 100,0 [34E11E19] [ECBBBD35] CRC32
08 99,5 [9E53FF70] [96C929B7] CRC32
09 100,0 [BC8DD31D] [B6AEF3E1] CRC32
10 100,0 [C6CF3FA1] [595991E8] CRC32
11 100,0 [D4B7238E] [8CDEE9DF] CRC32
12 100,0 [8C373C82] [B1964D83] CRC32
13 100,0 [E75B42FB] [3301DB9D] CRC32
14 100,0 [CDC1D832] [AEBDE461] CRC32
15 96,6 [A82D4681] [DA94832C] CRC32
16 100,0 [0B433F96] [A8FCBD38] CRC32
17 99,3 [8A7BECFD] [D22278E1] CRC32
18 100,0 [3D9AD5FC] [01F58BFB] CRC32
19 100,0 [8786D75B] [BBCA30F1] CRC32
20 100,0 [1CA8BBC7] [DACB8C36] CRC32
 
Об альбоме (сборнике)
Joao Gilberto's best-of compilation released in conjunction with his first concert in Japan. Contains 20 tracks selected from his four albums: "Getz/Gilberto" (1963), "Aguas de Marco" (1973), "Ela E Carioka" (1974), and "Joao" (1990).
14:49
320
Нет комментариев. Ваш будет первым!