Поиск

(Bossa Nova) [CD] Cristina Braga - Samba, Jazz and Love - 2013, FLAC (tracks+.cue), lossless

(Bossa Nova) [CD] Cristina Braga - Samba, Jazz and Love - 2013, FLAC (tracks+.cue), lossless
Треклист:
Cristina Braga - Samba, Jazz and Love
Жанр: Bossa Nova
Носитель: CD
Страна-производитель диска: Германия
Год издания: 2013
Издатель (лейбл): Enja Records
Номер по каталогу: ENJ-9593 2
Страна: Бразилия
Аудиокодек: FLAC (*.flac)
Тип рипа: tracks+.cue
Битрейт аудио: lossless
Продолжительность: 48:42
Источник (релизер): Nostalgiastic (what)
Наличие сканов в содержимом раздачи: нет
Треклист:
01. Love Parfait (4:58)
02. O Barquinho (4:18)
03. Samba e Amor (3:54)
04. Desafinado (4:40)
05. Rio Paraiso (4:16)
06. Triste de Quem (7:20)
07. So Danco Samba (3:15)
08. Preciso Me Encontrar (3:42)
09. Canta Mais (5:22)
10. Chovendo na Roseira (4:24)
11. Desde de Que o Samba e Samba (2:33)
Состав:
Cristina Braga - vocals, harp
Ricardo Medeiros - double bass
Jesse Sadoc - trumpet, flugelhorn
Joca Moraes - alfaia drums, tambourin
Arthur Dutra - vibraphone
 
Лог создания рипа
Exact Audio Copy V1.0 beta 3 from 29. August 2011
EAC extraction logfile from 5. May 2014, 18:37
Cristina Braga / Samba, Jazz, and Love
Used drive : hp BD ROM BC-5550H Adapter: 1 ID: 0
Read mode : Secure
Utilize accurate stream : Yes
Defeat audio cache : Yes
Make use of C2 pointers : No
Read offset correction : 48
Overread into Lead-In and Lead-Out : No
Fill up missing offset samples with silence : Yes
Delete leading and trailing silent blocks : No
Null samples used in CRC calculations : Yes
Used interface : Native Win32 interface for Win NT & 2000
Gap handling : Appended to previous track
Used output format : User Defined Encoder
Selected bitrate : 1024 kBit/s
Quality : High
Add ID3 tag : No
Command line compressor : C:\Program Files (x86)\Exact Audio Copy\FLAC\FLAC.EXE
Additional command line options : -8 -V -T "ARTIST=%artist%" -T "TITLE=%title%" -T "ALBUM=%albumtitle%" -T "DATE=%year%" -T "TRACKNUMBER=%tracknr%" -T "GENRE=%genre%" -T "COMMENT=%comment%" -T "BAND=%albuminterpret%" -T "ALBUMARTIST=%albuminterpret%" -T "COMPOSER=%composer%" %haslyrics%--tag-from-file=LYRICS="%lyricsfile%"%haslyrics% -T "DISCNUMBER=%cdnumber%" -T "TOTALDISCS=%totalcds%" -T "TOTALTRACKS=%numtracks%" %hascover%--picture="%coverfile%"%hascover% %source% -o %dest%
TOC of the extracted CD
Track | Start | Length | Start sector | End sector
---------------------------------------------------------
1 | 0:00.00 | 4:57.64 | 0 | 22338
2 | 4:57.64 | 4:17.45 | 22339 | 41658
3 | 9:15.34 | 3:54.31 | 41659 | 59239
4 | 13:09.65 | 4:39.65 | 59240 | 80229
5 | 17:49.55 | 4:15.53 | 80230 | 99407
6 | 22:05.33 | 7:20.28 | 99408 | 132435
7 | 29:25.61 | 3:15.09 | 132436 | 147069
8 | 32:40.70 | 3:41.56 | 147070 | 163700
9 | 36:22.51 | 5:22.34 | 163701 | 187884
10 | 41:45.10 | 4:24.22 | 187885 | 207706
11 | 46:09.32 | 2:32.38 | 207707 | 219144
Track 1
Filename C:\EAC Music and Logs\Cristina Braga - Samba, Jazz, and Love (2014) - FLAC\01 - Love Parfait.wav
Pre-gap length 0:00:02.00
Peak level 98.0 %
Extraction speed 4.4 X
Track quality 100.0 %
Test CRC E5959287
Copy CRC E5959287
Accurately ripped (confidence 7) [C11495F7] (AR v2)
Copy OK
Track 2
Filename C:\EAC Music and Logs\Cristina Braga - Samba, Jazz, and Love (2014) - FLAC\02 - O Barquinho.wav
Peak level 98.0 %
Extraction speed 4.9 X
Track quality 99.9 %
Test CRC 717E01BE
Copy CRC 717E01BE
Accurately ripped (confidence 7) [13156892] (AR v2)
Copy OK
Track 3
Filename C:\EAC Music and Logs\Cristina Braga - Samba, Jazz, and Love (2014) - FLAC\03 - Samba E Amor.wav
Peak level 98.8 %
Extraction speed 5.4 X
Track quality 100.0 %
Test CRC C5E2B06B
Copy CRC C5E2B06B
Accurately ripped (confidence 7) [CE9DE248] (AR v2)
Copy OK
Track 4
Filename C:\EAC Music and Logs\Cristina Braga - Samba, Jazz, and Love (2014) - FLAC\04 - Desafinado.wav
Peak level 98.8 %
Extraction speed 5.7 X
Track quality 99.9 %
Test CRC 58911FE3
Copy CRC 58911FE3
Accurately ripped (confidence 7) [8AFF43A8] (AR v2)
Copy OK
Track 5
Filename C:\EAC Music and Logs\Cristina Braga - Samba, Jazz, and Love (2014) - FLAC\05 - Rio Paraiso.wav
Peak level 98.8 %
Extraction speed 6.1 X
Track quality 100.0 %
Test CRC 9BA63342
Copy CRC 9BA63342
Accurately ripped (confidence 7) [977A196E] (AR v2)
Copy OK
Track 6
Filename C:\EAC Music and Logs\Cristina Braga - Samba, Jazz, and Love (2014) - FLAC\06 - Triste De Quem.wav
Peak level 97.8 %
Extraction speed 6.7 X
Track quality 100.0 %
Test CRC 04A8BA5C
Copy CRC 04A8BA5C
Accurately ripped (confidence 7) [5D3CEF90] (AR v2)
Copy OK
Track 7
Filename C:\EAC Music and Logs\Cristina Braga - Samba, Jazz, and Love (2014) - FLAC\07 - Só Danço Samba.wav
Peak level 98.8 %
Extraction speed 6.9 X
Track quality 100.0 %
Test CRC 8FF8F92B
Copy CRC 8FF8F92B
Accurately ripped (confidence 7) [7B4002BA] (AR v2)
Copy OK
Track 8
Filename C:\EAC Music and Logs\Cristina Braga - Samba, Jazz, and Love (2014) - FLAC\08 - Preciso Me Encontrar.wav
Peak level 98.8 %
Extraction speed 7.0 X
Track quality 99.9 %
Test CRC 6106A3DC
Copy CRC 6106A3DC
Accurately ripped (confidence 7) [4407E1D8] (AR v2)
Copy OK
Track 9
Filename C:\EAC Music and Logs\Cristina Braga - Samba, Jazz, and Love (2014) - FLAC\09 - Canta Mais.wav
Peak level 97.9 %
Extraction speed 7.6 X
Track quality 100.0 %
Test CRC 0D9FAE82
Copy CRC 0D9FAE82
Accurately ripped (confidence 7) [90068EA5] (AR v2)
Copy OK
Track 10
Filename C:\EAC Music and Logs\Cristina Braga - Samba, Jazz, and Love (2014) - FLAC\10 - Chovendo Na Roseira.wav
Peak level 98.8 %
Extraction speed 7.7 X
Track quality 99.9 %
Test CRC F882443E
Copy CRC F882443E
Accurately ripped (confidence 7) [18E86B5D] (AR v2)
Copy OK
Track 11
Filename C:\EAC Music and Logs\Cristina Braga - Samba, Jazz, and Love (2014) - FLAC\11 - Desde De Que O Samba É Samba.wav
Peak level 98.1 %
Extraction speed 8.1 X
Track quality 100.0 %
Test CRC F0CB92AB
Copy CRC F0CB92AB
Accurately ripped (confidence 7) [7323935F] (AR v2)
Copy OK
All tracks accurately ripped
No errors occurred
End of status report
==== Log checksum 13662E3516EB2977EDB2CE098E39E19E627C671095F6101154F0474A9FC9465E ====
 
Содержание индексной карты (.CUE)
REM GENRE Jazz
REM DATE 2013
REM DISCID A30B690B
REM COMMENT "ExactAudioCopy v1.0b3"
PERFORMER "Cristina Braga"
TITLE "Samba, Jazz and Love"
FILE "01 - Love Parfait.wav" WAVE
TRACK 01 AUDIO
TITLE "Love Parfait"
PERFORMER "Cristina Braga"
INDEX 01 00:00:00
FILE "02 - O Barquinho.wav" WAVE
TRACK 02 AUDIO
TITLE "O Barquinho"
PERFORMER "Cristina Braga"
INDEX 01 00:00:00
FILE "03 - Samba e Amor.wav" WAVE
TRACK 03 AUDIO
TITLE "Samba e Amor"
PERFORMER "Cristina Braga"
INDEX 01 00:00:00
FILE "04 - Desafinado.wav" WAVE
TRACK 04 AUDIO
TITLE "Desafinado"
PERFORMER "Cristina Braga"
INDEX 01 00:00:00
FILE "05 - Rio Paraiso.wav" WAVE
TRACK 05 AUDIO
TITLE "Rio Paraiso"
PERFORMER "Cristina Braga"
INDEX 01 00:00:00
FILE "06 - Triste de Quem.wav" WAVE
TRACK 06 AUDIO
TITLE "Triste de Quem"
PERFORMER "Cristina Braga"
INDEX 01 00:00:00
FILE "07 - So Danco Samba.wav" WAVE
TRACK 07 AUDIO
TITLE "So Danco Samba"
PERFORMER "Cristina Braga"
INDEX 01 00:00:00
FILE "08 - Preciso Me Encontrar.wav" WAVE
TRACK 08 AUDIO
TITLE "Preciso Me Encontrar"
PERFORMER "Cristina Braga"
INDEX 01 00:00:00
FILE "09 - Canta Mais.wav" WAVE
TRACK 09 AUDIO
TITLE "Canta Mais"
PERFORMER "Cristina Braga"
INDEX 01 00:00:00
FILE "10 - Chovendo na Roseira.wav" WAVE
TRACK 10 AUDIO
TITLE "Chovendo na Roseira"
PERFORMER "Cristina Braga"
INDEX 01 00:00:00
FILE "11 - Desde de Que o Samba e Samba.wav" WAVE
TRACK 11 AUDIO
TITLE "Desde de Que o Samba e Samba"
PERFORMER "Cristina Braga"
INDEX 01 00:00:00
 
Отчет CUETools
[CUETools log; Date: 05.06.2014 2:10:01; Version: 2.1.4]
[CTDB TOCID: yuD473sk5vkTr7WUNJLm13IG6IQ-] found.
Track | CTDB Status
1 | (3/3) Accurately ripped
2 | (3/3) Accurately ripped
3 | (3/3) Accurately ripped
4 | (3/3) Accurately ripped
5 | (3/3) Accurately ripped
6 | (3/3) Accurately ripped
7 | (3/3) Accurately ripped
8 | (3/3) Accurately ripped
9 | (3/3) Accurately ripped
10 | (3/3) Accurately ripped
11 | (3/3) Accurately ripped
[AccurateRip ID: 0014c3b4-00b3aa26-a30b690b] found.
Track [ CRC | V2 ] Status
01 [2cd878c9|c11495f7] (0+8/8) Accurately ripped
02 [f6b4772d|13156892] (0+8/8) Accurately ripped
03 [4a481fd5|ce9de248] (0+8/8) Accurately ripped
04 [f3a57fbc|8aff43a8] (0+8/8) Accurately ripped
05 [eec0e6ef|977a196e] (0+8/8) Accurately ripped
06 [8c913865|5d3cef90] (0+8/8) Accurately ripped
07 [3a33e23d|7b4002ba] (0+8/8) Accurately ripped
08 [df90b3ea|4407e1d8] (0+8/8) Accurately ripped
09 [75c328f3|90068ea5] (0+8/8) Accurately ripped
10 [1b84f3d3|18e86b5d] (0+8/8) Accurately ripped
11 [43916e65|7323935f] (0+8/8) Accurately ripped
Track Peak [ CRC32 ] [W/O NULL] [ LOG ]
-- 98,8 [4557E1B9] [1A4612B1]
01 98,0 [E5959287] [6E6CB5A6] CRC32
02 98,0 [717E01BE] [6CF87528] CRC32
03 98,8 [C5E2B06B] [BB2B65CA] CRC32
04 98,8 [58911FE3] [71DCFD23] CRC32
05 98,8 [9BA63342] [194404AA] CRC32
06 97,8 [04A8BA5C] [3D3A184C] CRC32
07 98,8 [8FF8F92B] [293761FC] CRC32
08 98,8 [6106A3DC] [8E837CE7] CRC32
09 97,9 [0D9FAE82] [3DAEB16B] CRC32
10 98,8 [F882443E] [655780DF] CRC32
11 98,1 [F0CB92AB] [761725A7] CRC32
 
Review by Jack Goodstein
Perhaps because of her harp, the one word that seems best to describe the music on singer/harpist Cristina Braga’s new album Samba, Jazz and Love is angelic. Her voice is soft and sweet, and if the heavenly seraphim song doesn’t sound like a track from this album, something is amiss in the upper spheres. Put together Braga’s vocals with the trumpet of Jessé Sadoc and Arthur Dutra’s vibraphone in a program of Brazilian music and you’re on a stairway to secular heaven.
For variety, there are some jauntier numbers like “Só Danço Samba” with a real jazz flavor and the album’s last number, “Desde de Que O Samba Ė Samba,” but for Cristina Braga it seems lyricism is always dominant.
While most of the tunes on the set are sung in Portuguese, she does sing Antonio Carlos Jobim’s classic “Desafinado” and two other pieces, the album’s opener “Love Parfait” and the syncopated “Rio Paraiso,” in English. This last is heard in a translation by the singer and her bassist/musical director Ricardo Medeiros.
The harp, horn, vibraphone combination produces some truly ethereal effects. The opening of “Triste de Quem,” the first of the album’s two instrumentals, is electric. Medieiros adds his only bass solo. Jobim’s “Chovendo Na Roseira,” the other instrumental, makes it clear that these are also musicians who can swing when they want to. The interplay between the three is always effective, making these instrumentals some of the highlights of the disc.
15:38
260
Нет комментариев. Ваш будет первым!