Поиск

(Bossa Nova) [CD] Bob Brookmeyer (w/ Lalo Schifrin) - Trombone Jazz Samba (1962)/Samba Para Dos (1963) (2in1) - 2012 (Jazzplus), FLAC (image+.cue), lossless

(Bossa Nova) [CD] Bob Brookmeyer (w/ Lalo Schifrin) - Trombone Jazz Samba (1962)/Samba Para Dos (1963) (2in1) - 2012 (Jazzplus), FLAC (image+.cue), lossless
Треклист:
Bob Brookmeyer (w/ Lalo Schifrin) - Trombone Jazz Samba/Samba Para Dos
Жанр: Bossa Nova
Носитель: CD
Страна-производитель диска: Германия
Год издания: 2012
Издатель (лейбл): Jazzplus/Universal Music Classics & Jazz/Verve
Номер по каталогу: 06007 5340116
Страна: США
Аудиокодек: FLAC (*.flac)
Тип рипа: image+.cue
Битрейт аудио: lossless
Продолжительность: 59:50
Источник (релизер): диск из моей коллекции
Наличие сканов в содержимом раздачи: да
Треклист:
Bob Brookmeyer - Trombone Jazz Samba (1962):
01. Samba de Orfeu (Bonfa) - 4:10
02. Manha de Carneval (Bonfa) - 4:36
03. Blues Bossa Nova (Brookmeyer) - 4:11
04. Qual e o Po (Kelly-Goncalves) - 3:33
05. A Felicidade (Jobim-De Moraes) - 3:16
06. Theme from "Mutiny on the Bounty" (Kaper) - 2:06
07. Chara Tua Tristeza (Fiorini-Neves) - 4:15
08. Col. Bogey Bossa Nova (Alford) - 2:21
Lalo Schifrin & Bob Brookmeyer - Samba Para Dos (1963):
09. Samba Para Dos (Schifrin) - 10:07
10. What Kind of Fool Am I (Bricusse-Newley) - 3:05
11. I Get a Kick Out of You (Porter) - 3:37
12. Just One of Those Things (Porter) - 3:23
13. Time After Time (Styne-Cahn) - 3:31
14. It's All Right with Me (Porter) - 2:32
15. My Funny Valentine (Rodgers-Hart) - 2:03
16. But Not for Me (Gershwin-Gershwin) - 3:06
 
Лог создания рипа
Exact Audio Copy V1.0 beta 3 from 29. August 2011
EAC extraction logfile from 3. March 2014, 19:27
Bob Brookmeyer / Trombone Jazz Samba/Samba Para Dos
Used drive : ASUS DRW-24B1LT Adapter: 5 ID: 1
Read mode : Secure
Utilize accurate stream : Yes
Defeat audio cache : Yes
Make use of C2 pointers : No
Read offset correction : 6
Overread into Lead-In and Lead-Out : No
Fill up missing offset samples with silence : Yes
Delete leading and trailing silent blocks : No
Null samples used in CRC calculations : Yes
Used interface : Native Win32 interface for Win NT & 2000
Used output format : User Defined Encoder
Selected bitrate : 768 kBit/s
Quality : High
Add ID3 tag : No
Command line compressor : C:\Program Files\Exact Audio Copy\Flac\flac.exe
Additional command line options : -8 -V -T "ARTIST=%artist%" -T "TITLE=%title%" -T "ALBUM=%albumtitle%" -T "DATE=%year%" -T "TRACKNUMBER=%tracknr%" -T "TOTALTRACKS=%numtracks%" -T "GENRE=%genre%" -T "ALBUMARTIST=%albumartist%" -T "ALBUM ARTIST=%albumartist%" -T "COMMENT=EAC Secure Mode, Test & Copy, AccurateRip, FLAC -8" %source%
TOC of the extracted CD
Track | Start | Length | Start sector | End sector
---------------------------------------------------------
1 | 0:00.00 | 4:10.12 | 0 | 18761
2 | 4:10.12 | 4:35.40 | 18762 | 39426
3 | 8:45.52 | 4:10.39 | 39427 | 58215
4 | 12:56.16 | 3:32.53 | 58216 | 74168
5 | 16:28.69 | 3:15.54 | 74169 | 88847
6 | 19:44.48 | 2:06.14 | 88848 | 98311
7 | 21:50.62 | 4:15.31 | 98312 | 117467
8 | 26:06.18 | 2:20.46 | 117468 | 128013
9 | 28:26.64 | 10:06.66 | 128014 | 173529
10 | 38:33.55 | 3:04.72 | 173530 | 187401
11 | 41:38.52 | 3:36.52 | 187402 | 203653
12 | 45:15.29 | 3:22.39 | 203654 | 218842
13 | 48:37.68 | 3:31.07 | 218843 | 234674
14 | 52:09.00 | 2:32.34 | 234675 | 246108
15 | 54:41.34 | 2:02.66 | 246109 | 255324
16 | 56:44.25 | 3:05.45 | 255325 | 269244
Range status and errors
Selected range
Filename F:\audio\Bob Brookmeyer - Trombone Jazz Samba-Samba Para Dos.wav
Peak level 98.8 %
Extraction speed 5.6 X
Range quality 99.9 %
Test CRC B899A597
Copy CRC B899A597
Copy OK
No errors occurred
AccurateRip summary
Track 1 accurately ripped (confidence 7) [501A80ED] (AR v2)
Track 2 accurately ripped (confidence 7) [A05E9A60] (AR v2)
Track 3 accurately ripped (confidence 7) [28337566] (AR v2)
Track 4 accurately ripped (confidence 7) [05BF9B9F] (AR v2)
Track 5 accurately ripped (confidence 7) [6692E5CB] (AR v2)
Track 6 accurately ripped (confidence 7) [35406FB8] (AR v2)
Track 7 accurately ripped (confidence 7) [431AEF9F] (AR v2)
Track 8 accurately ripped (confidence 7) [3CB73CBB] (AR v2)
Track 9 accurately ripped (confidence 7) [21543EBA] (AR v2)
Track 10 accurately ripped (confidence 7) [418D71B4] (AR v2)
Track 11 accurately ripped (confidence 7) [7F55AD3C] (AR v2)
Track 12 accurately ripped (confidence 7) [00643F1B] (AR v2)
Track 13 accurately ripped (confidence 7) [BBF63C40] (AR v2)
Track 14 accurately ripped (confidence 6) [88F42E90] (AR v2)
Track 15 accurately ripped (confidence 6) [3ED45991] (AR v2)
Track 16 accurately ripped (confidence 6) [E24F8C27] (AR v2)
All tracks accurately ripped
End of status report
---- CUETools DB Plugin V2.1.3
[CTDB TOCID: wMbw72Y6uQXSU2Jybe6gfn9weXw-] found, Submit result: wMbw72Y6uQXSU2Jybe6gfn9weXw- has been confirmed
[743f0ebd] (7/7) Accurately ripped
==== Log checksum ABFF52BD781345C297EA9C7E014A7A092FE2D9D8362DD450B2ACE52E528D3576 ====
 
Содержание индексной карты (.CUE)
REM GENRE Jazz
REM DATE 1963
REM DISCID D90E0510
REM COMMENT "ExactAudioCopy v1.0b3"
PERFORMER "Bob Brookmeyer"
TITLE "Trombone Jazz Samba/Samba Para Dos"
FILE "Bob Brookmeyer - Trombone Jazz Samba-Samba Para Dos.wav" WAVE
TRACK 01 AUDIO
TITLE "Samba de Orfeu"
PERFORMER "Bob Brookmeyer"
INDEX 01 00:00:00
TRACK 02 AUDIO
TITLE "Manha de Carneval"
PERFORMER "Bob Brookmeyer"
INDEX 00 04:08:37
INDEX 01 04:10:12
TRACK 03 AUDIO
TITLE "Blues Bossa Nova"
PERFORMER "Bob Brookmeyer"
INDEX 00 08:43:68
INDEX 01 08:45:52
TRACK 04 AUDIO
TITLE "Qual e o Po"
PERFORMER "Bob Brookmeyer"
INDEX 00 12:54:48
INDEX 01 12:56:16
TRACK 05 AUDIO
TITLE "A Felicidade"
PERFORMER "Bob Brookmeyer"
INDEX 00 16:27:04
INDEX 01 16:28:69
TRACK 06 AUDIO
TITLE "Theme from 'Mutiny on the Bounty'"
PERFORMER "Bob Brookmeyer"
INDEX 00 19:43:17
INDEX 01 19:44:48
TRACK 07 AUDIO
TITLE "Chara Tua Tristeza"
PERFORMER "Bob Brookmeyer"
INDEX 00 21:48:19
INDEX 01 21:50:62
TRACK 08 AUDIO
TITLE "Col. Bogey Bossa Nova"
PERFORMER "Bob Brookmeyer"
INDEX 00 26:04:06
INDEX 01 26:06:18
TRACK 09 AUDIO
TITLE "Samba Para Dos"
PERFORMER "Bob Brookmeyer"
INDEX 00 28:21:71
INDEX 01 28:26:64
TRACK 10 AUDIO
TITLE "What Kind of Fool Am I"
PERFORMER "Bob Brookmeyer"
INDEX 00 38:32:35
INDEX 01 38:33:55
TRACK 11 AUDIO
TITLE "I Get a Kick Out of You"
PERFORMER "Bob Brookmeyer"
INDEX 00 41:36:40
INDEX 01 41:38:52
TRACK 12 AUDIO
TITLE "Just One of Those Things"
PERFORMER "Bob Brookmeyer"
INDEX 00 45:12:62
INDEX 01 45:15:29
TRACK 13 AUDIO
TITLE "Time After Time"
PERFORMER "Bob Brookmeyer"
INDEX 00 48:35:51
INDEX 01 48:37:68
TRACK 14 AUDIO
TITLE "It's All Right with Me"
PERFORMER "Bob Brookmeyer"
INDEX 00 52:07:18
INDEX 01 52:09:00
TRACK 15 AUDIO
TITLE "My Funny Valentine"
PERFORMER "Bob Brookmeyer"
INDEX 00 54:39:62
INDEX 01 54:41:34
TRACK 16 AUDIO
TITLE "But Not for Me"
PERFORMER "Bob Brookmeyer"
INDEX 00 56:42:10
INDEX 01 56:44:25
 
Отчет CUETools
[CUETools log; Date: 03.03.2014 19:33:00; Version: 2.1.4]
[CTDB TOCID: wMbw72Y6uQXSU2Jybe6gfn9weXw-] found.
Track | CTDB Status
1 | (8/8) Accurately ripped
2 | (8/8) Accurately ripped
3 | (8/8) Accurately ripped
4 | (8/8) Accurately ripped
5 | (8/8) Accurately ripped
6 | (8/8) Accurately ripped
7 | (8/8) Accurately ripped
8 | (8/8) Accurately ripped
9 | (8/8) Accurately ripped
10 | (8/8) Accurately ripped
11 | (8/8) Accurately ripped
12 | (8/8) Accurately ripped
13 | (8/8) Accurately ripped
14 | (8/8) Accurately ripped
15 | (8/8) Accurately ripped
16 | (8/8) Accurately ripped
[AccurateRip ID: 0024cddf-01b76ac4-d90e0510] found.
Track [ CRC | V2 ] Status
01 [ac3b45c3|501a80ed] (0+7/7) Accurately ripped
02 [3d3d5f86|a05e9a60] (0+7/7) Accurately ripped
03 [3b39bffe|28337566] (0+7/7) Accurately ripped
04 [d12eae1b|05bf9b9f] (0+7/7) Accurately ripped
05 [aad3822b|6692e5cb] (0+7/7) Accurately ripped
06 [87e751b1|35406fb8] (0+7/7) Accurately ripped
07 [01b6321f|431aef9f] (0+7/7) Accurately ripped
08 [938fb0bb|3cb73cbb] (0+7/7) Accurately ripped
09 [d798adee|21543eba] (0+7/7) Accurately ripped
10 [f3b62d95|418d71b4] (0+7/7) Accurately ripped
11 [3c06aae8|7f55ad3c] (0+7/7) Accurately ripped
12 [7ca4d203|00643f1b] (0+7/7) Accurately ripped
13 [c91307a4|bbf63c40] (0+7/7) Accurately ripped
14 [a05285a2|88f42e90] (0+6/6) Accurately ripped
15 [7e91b785|3ed45991] (0+6/6) Accurately ripped
16 [7df70cc2|e24f8c27] (0+6/6) Accurately ripped
Track Peak [ CRC32 ] [W/O NULL] [ LOG ]
-- 98,8 [B899A597] [F89DF689] CRC32
01 98,8 [0B6724DC] [D9F60F03]
02 98,8 [23A465C2] [85CEBBD9]
03 98,8 [550C0191] [0C0F0E78]
04 98,8 [971C2A28] [B2E5E78B]
05 98,8 [EFC5061E] [79FE24A3]
06 98,8 [EBB4CDA2] [1ED81A47]
07 98,8 [F43EC2A2] [0EBC4073]
08 98,8 [78C6AAB2] [0BEEF18D]
09 98,8 [32CD059B] [7B5A013B]
10 97,3 [A848C237] [D9F8784E]
11 98,8 [47F9933C] [5460DE52]
12 98,8 [642209E4] [DD9CF449]
13 98,8 [0EAF6973] [E66B5368]
14 98,8 [CF9769BE] [E2D9A0F2]
15 98,8 [60E99CA0] [FFB4D811]
16 98,8 [C076334E] [70EBAB5D]
 
Об альбоме (сборнике)
Pure genius throughout – two great albums on a single CD! Trombone Jazz Samba is an overlooked gem from Bob Brookmeyer – and a set that fits in strongly with the other Verve Records bossa nova albums of the 60s! Bob's the center star on valve trombone, but the record's awash in work from other great Verve talents too – a tight small group that features Gary McFarland on vibes, Jim Hall and Jimmy Raney on guitars, and Willie Bobo on drums – alongside some added percussion that really helps keep the bossa spirit strong! Tunes have that spare, soulful crackle that you'd find in the Stan Getz bossa sessions for Verve – except that trombone is the lead solo instrument here – and titles include "A Felicidade", "Col Bogey Bossa Nova", "Blues Bossa Nova", "Qual E O Po", "Chara Tu Tristeza", and "Samba De Orfeu". Samba Para Dos is a great lost groover on Verve – recorded during the heyday of the label's bossa years with Stan Getz! The record features Bob Brookmeyer fronting a large group arranged and conducted by Lalo Schifrin – soloing over the top, while Lalo comes up with sparkling bossa-tinged grooves that are in the spirit of his best soundtrack work of the mid 60s. Brookmeyer's playing is great too – very different than his sparer, modernist work on other records – and very much in the tradition of Brazilian trombone players who were a key force in bossa jazz at the time. The set includes one long original, "Samba Para Dos", plus shorter standards like "My Funny Valentine", "What Kind Of Fool Am I", and "I Get A Kick Out Of You" – all taken in great jazzy bossa versions!
 
Состав
Bob Brookmeyer - Trombone Jazz Samba (1962):
Bob Brookmeyer - valve trombone, piano
Gary McFarland - vibraphone
Jim Hall, Jimmy Raney - guitar
Willie Bobo - latin drums
Carmen Costa - cabasa
Jose Paulo - tambourine
Recorded in New York on August 21-23 and September 14, 1962.
Lalo Schifrin & Bob Brookmeyer - Samba Para Dos (1963):
Bob Brookmeyer - valve trombone
Lalo Schifrin - piano, arrangements
Leo Wright - alto saxophone, flute
Phil Woods, Jerome Richardson - alto saxophone
Zoot Sims, Al Cohn - tenor saxophone
Romeo Penque - bass clarinet
Danny Bank - baritone saxophone
Frank Rehak - trombone
Carmelita Koehler - cello
Jimmy Raney - guitar
Ben Tucker - bass
Dave Bailey - drums
Jose Paulo - percussion
Recorded in New York on February 7, 1963.
13:43
269
Нет комментариев. Ваш будет первым!