Поиск

(bossa nova) [CD] Akiko - Vida - 2007, FLAC (image+.cue), lossless

(bossa nova) [CD] Akiko - Vida - 2007, FLAC (image+.cue), lossless
Треклист:
Akiko / Vida
Жанр: bossa nova
Носитель: CD
Год издания: 2007
Издатель (лейбл): UNIVERSAL CLASSICS & JAZZ
Номер по каталогу: DZ2962/450 653-6
Страна исполнителя (группы): Japan
Аудиокодек: FLAC (*.flac)
Тип рипа: image+.cue
Битрейт аудио: lossless
Продолжительность: 00:45:59
Источник (релизер): собственный рип
Наличие сканов в содержимом раздачи: нет
Треклист:
01 Brazil 3:33
02 Batucada 4:07
03 Breathing Life 4:13
04 Meu Corao 2:43
05 Payapta Turdi 3:44
06 Chega de Saudade 4:03
07 A Song for You 3:54
08 A Little Bruise (Arto E Eu) 3:27
09 Roda 3:01
10 Jardim Botnico 4:51
11 Yin&Yang 4:30
12 Brazil 3:49
 
Лог создания рипа
Exact Audio Copy V1.3 from 2. September 2016
EAC extraction logfile from 31. July 2018, 12:44
Akiko / Vida
Used drive : Optiarc DVD RW AD-5280S Adapter: 1 ID: 0
Read mode : Secure
Utilize accurate stream : Yes
Defeat audio cache : Yes
Make use of C2 pointers : No
Read offset correction : 48
Overread into Lead-In and Lead-Out : Yes
Fill up missing offset samples with silence : Yes
Delete leading and trailing silent blocks : No
Null samples used in CRC calculations : Yes
Used interface : Native Win32 interface for Win NT & 2000
Used output format : User Defined Encoder
Selected bitrate : 896 kBit/s
Quality : High
Add ID3 tag : No
Command line compressor : C:\Program Files (x86)\Exact Audio Copy\FLAC\FLAC.EXE
Additional command line options : -8 -V -T "ARTIST=%artist%" -T "TITLE=%title%" -T "ALBUM=%albumtitle%" -T "DATE=%year%" -T "TRACKNUMBER=%tracknr%" -T "GENRE=%genre%" -T "COMMENT=%comment%" -T "BAND=%albuminterpret%" -T "ALBUMARTIST=%albuminterpret%" -T "COMPOSER=%composer%" %haslyrics%--tag-from-file=LYRICS="%lyricsfile%"%haslyrics% -T "DISCNUMBER=%cdnumber%" -T "TOTALDISCS=%totalcds%" -T "TOTALTRACKS=%numtracks%" %hascover%--picture="%coverfile%"%hascover% %source% -o %dest%
TOC of the extracted CD
Track | Start | Length | Start sector | End sector
---------------------------------------------------------
1 | 0:00.00 | 3:33.56 | 0 | 16030
2 | 3:33.56 | 4:07.63 | 16031 | 34618
3 | 7:41.44 | 4:13.16 | 34619 | 53609
4 | 11:54.60 | 2:43.07 | 53610 | 65841
5 | 14:37.67 | 3:44.19 | 65842 | 82660
6 | 18:22.11 | 4:02.72 | 82661 | 100882
7 | 22:25.08 | 3:54.36 | 100883 | 118468
8 | 26:19.44 | 3:27.10 | 118469 | 134003
9 | 29:46.54 | 3:01.58 | 134004 | 147636
10 | 32:48.37 | 4:51.12 | 147637 | 169473
11 | 37:39.49 | 4:30.65 | 169474 | 189788
12 | 42:10.39 | 3:48.61 | 189789 | 206949
Range status and errors
Selected range
Filename C:\Users\Haraldss Stenclavss\Desktop\RIP\Akiko - Vida.wav
Peak level 98.1 %
Extraction speed 7.4 X
Range quality 100.0 %
Test CRC AB82AB85
Copy CRC AB82AB85
Copy OK
No errors occurred
AccurateRip summary
Track 1 cannot be verified as accurate (confidence 9) [57EBC6D4], AccurateRip returned [DBC194DE] (AR v2)
Track 2 accurately ripped (confidence 2) [83947718] (AR v2)
Track 3 cannot be verified as accurate (confidence 8) [37AD6984], AccurateRip returned [B6C31E0D] (AR v2)
Track 4 accurately ripped (confidence 2) [8AE7CA8F] (AR v2)
Track 5 accurately ripped (confidence 2) [3A4D2D09] (AR v2)
Track 6 accurately ripped (confidence 2) [5B5142C8] (AR v2)
Track 7 accurately ripped (confidence 2) [179E4D12] (AR v2)
Track 8 accurately ripped (confidence 2) [2B1DEE74] (AR v2)
Track 9 accurately ripped (confidence 2) [B356FB36] (AR v2)
Track 10 accurately ripped (confidence 2) [53B77C1A] (AR v2)
Track 11 accurately ripped (confidence 2) [50B9A4C1] (AR v2)
Track 12 accurately ripped (confidence 2) [5120F562] (AR v2)
10 track(s) accurately ripped
2 track(s) could not be verified as accurate
Some tracks could not be verified as accurate
End of status report
---- CUETools DB Plugin V2.1.6
[CTDB TOCID: Tct7i9ODOqINvfB6JWkS.wEqYCs-] found
Submit result: already submitted
Track | CTDB Status
1 | (30/30) Accurately ripped
2 | (30/30) Accurately ripped
3 | (30/30) Accurately ripped
4 | (30/30) Accurately ripped
5 | (30/30) Accurately ripped
6 | (30/30) Accurately ripped
7 | (30/30) Accurately ripped
8 | (30/30) Accurately ripped
9 | (30/30) Accurately ripped
10 | (29/30) Accurately ripped
11 | (30/30) Accurately ripped
12 | (30/30) Accurately ripped
==== Log checksum B5DC29987F8ADBFE444000681F14927F6790B61579E16AB350E08462A26CBA18 ====
 
Содержание индексной карты (.CUE)
REM GENRE Jazz
REM DATE 2007
REM DISCID A10AC70C
REM COMMENT "ExactAudioCopy v1.3"
CATALOG 0028945068381
PERFORMER "Akiko"
TITLE "Vida"
REM COMPOSER ""
FILE "Akiko - Vida.flac" WAVE
TRACK 01 AUDIO
TITLE "Brazil"
PERFORMER "Akiko"
REM COMPOSER ""
ISRC JPPO00639020
INDEX 01 00:00:00
TRACK 02 AUDIO
TITLE "Batucada"
PERFORMER "Akiko"
REM COMPOSER ""
ISRC JPPO00639030
INDEX 01 03:33:56
TRACK 03 AUDIO
TITLE "Breathing Life"
PERFORMER "Akiko"
REM COMPOSER ""
ISRC JPPO00639040
INDEX 00 07:40:00
INDEX 01 07:41:44
TRACK 04 AUDIO
TITLE "Meu Coracao"
PERFORMER "Akiko"
REM COMPOSER ""
ISRC JPPO00639050
INDEX 00 11:53:02
INDEX 01 11:54:60
TRACK 05 AUDIO
TITLE "Payapta Turdi"
PERFORMER "Akiko"
REM COMPOSER ""
ISRC JPPO00639060
INDEX 00 14:35:09
INDEX 01 14:37:67
TRACK 06 AUDIO
TITLE "Chega de Saudade"
PERFORMER "Akiko"
REM COMPOSER ""
ISRC JPPO00639070
INDEX 00 18:19:63
INDEX 01 18:22:11
TRACK 07 AUDIO
TITLE "A Song for You"
PERFORMER "Akiko"
REM COMPOSER ""
ISRC JPPO00639080
INDEX 00 22:23:08
INDEX 01 22:25:08
TRACK 08 AUDIO
TITLE "A Little Bruise (arto e eu)"
PERFORMER "Akiko"
REM COMPOSER ""
ISRC JPPO00639090
INDEX 00 26:16:68
INDEX 01 26:19:44
TRACK 09 AUDIO
TITLE "Roda"
PERFORMER "Akiko"
REM COMPOSER ""
ISRC JPPO00639100
INDEX 00 29:44:16
INDEX 01 29:46:54
TRACK 10 AUDIO
TITLE "Jardim Botanico"
PERFORMER "Akiko"
REM COMPOSER ""
ISRC JPPO00639110
INDEX 00 32:44:53
INDEX 01 32:48:37
TRACK 11 AUDIO
TITLE "Yin & Yan"
PERFORMER "Akiko"
REM COMPOSER ""
ISRC JPPO00639120
INDEX 00 37:36:36
INDEX 01 37:39:49
TRACK 12 AUDIO
TITLE "Brazil (Big Band Version)"
PERFORMER "Akiko"
REM COMPOSER ""
ISRC JPPO00704490
INDEX 00 42:04:51
INDEX 01 42:10:39
 
waveform и спектр (OcenAudio)
Доп. информация: Оригинальный CD. Нет сомнение по качеству.
Приватный:
Да (DHT отключён)
Размер:
263.58 Мб (276,386,557 байт) » файлов: 4
Участники:
0 раздают, 0 качают (0 участников всего)
Внешние участники:
3 раздают, 1 качают (4 участников всего) [ Обновить ]
07:48
18
Нет комментариев. Ваш будет первым!