Поиск

(Bossa Nova) Camila Benson - Desafinado - 2009, FLAC (image+.cue) lossless

Треклист:
Camila Benson / Desafinado
Жанр: Bossa Nova
Страна-производитель диска: Japan
Год издания диска: 2009
Издатель (лейбл): Videoarts music inc.
Номер по каталогу: VACZ - 1385
Страна: Brazil
Аудио кодек: FLAC (*.flac)
Тип рипа: image+.cue
Битрейт аудио: lossless
Продолжительность: 50:10
Источник (релизер): fanplast
Наличие сканов в содержимом раздачи: да
Треклист:
1.Samba Do Avião
2.Meditation
3.Estate
4.Samba De Verão (So Nice)
5.Estrada Do Sol
6.Falando De Amor
7.Ele É Carioca
8.Samba Da Bênção
9.Águas De Março
10.Desafinado
11.Retrato Em Branco E Preto
 
Лог создания рипа
CUERipper v2.0.9 Copyright (C) 2008-10 Gregory S. Chudov
EAC extraction logfile from 9. January 2011, 15:53
Camila Benson / Desafinado
Used drive : PIONEER DVD-RW DVR-218L Adapter: 1 ID: 0
Read mode : Secure
Utilize accurate stream : Yes
Defeat audio cache : Yes
Make use of C2 pointers : No
Read offset correction : 6
Overread into Lead-In and Lead-Out : No
Fill up missing offset samples with silence : Yes
Delete leading and trailing silent blocks : No
Null samples used in CRC calculations : Yes
Used interface : Native Win32 interface for Win NT & 2000
Used output format : Internal WAV Routines
Sample format : 44.100 Hz; 16 Bit; Stereo
TOC of the extracted CD
Track | Start | Length | Start sector | End sector
---------------------------------------------------------
1 | 0:00.00 | 4:42.32 | 0 | 21181
2 | 4:42.32 | 4:02.73 | 21182 | 39404
3 | 8:45.30 | 5:47.67 | 39405 | 65496
4 | 14:33.22 | 4:37.53 | 65497 | 86324
5 | 19:11.00 | 4:10.05 | 86325 | 105079
6 | 23:21.05 | 3:40.00 | 105080 | 121579
7 | 27:01.05 | 4:39.02 | 121580 | 142506
8 | 31:40.07 | 4:03.50 | 142507 | 160781
9 | 35:43.57 | 4:23.13 | 160782 | 180519
10 | 40:06.70 | 4:55.52 | 180520 | 202696
11 | 45:02.47 | 5:05.45 | 202697 | 225616
Range status and errors
Selected range
Filename C:\Users\generator\Music\Camila Benson\1997 - Desafinado\Camila Benson - Desafinado.wav
Peak level 98.8 %
Range quality 100.0 %
Test CRC 153F8040
Copy CRC 153F8040
Copy OK
No errors occurred
AccurateRip summary
Track 1 not present in database
Track 2 not present in database
Track 3 not present in database
Track 4 not present in database
Track 5 not present in database
Track 6 not present in database
Track 7 not present in database
Track 8 not present in database
Track 9 not present in database
Track 10 not present in database
Track 11 not present in database
None of the tracks are present in the AccurateRip database
 
Скриншот спектра частот
Доп. информация: Executive Producer: Hisao Ebine
Artwork Coordination: Kei Wakabayashi
Design: Kazuya Kondo
Photo: Aya Shirai
 
Об исполнителе (группе)
Guitarist, singer, composer, and worldwide wandered, Camila Benson was born in Mato Grosso, Brazil.
Camila's guitar playing is very much influenced by Burden Powell, the Brazilian virtuoso. And while she does not consider herself a jazz guitarist, (but rather a lover of jazz), she admires many of the great jazz guitarists, such as Wes Montgomery, George Benson, Jim Hall, and Charlie Christian. Her other favorite jazz greats are Charlie Parker, John Coltrane, Cannonball Adderley, Sonny Stitt, J.J. Johnson, Slide Hampton, Art Tatum, Thelonius Monk, and Errol Garner.
 
Об альбоме (сборнике)
Desafinado by Antonio Carlos Jobim II
produced by Ryo kawasaki and Kioshi Ito
 
Состав
Camila Benson: vocal,acoustic guitar
Lincoln goines: bass (on 1,2,3&11)
Yoshio "Chin" Suzuki: Acoustic bass (on 5&6)
Ryo Kawasaki: synth bass (on 4,7,9&10)
Craig Rivers: soprano & alto sax (on 2,4&7)
Victor Jones: additional drums & trumpet (on 3&11)
Ryo Kawasaki: keyboards, rhytm & solo acoustic guitars
20:02
426
Нет комментариев. Ваш будет первым!