Поиск

(Bossa Nova, Brazilian, Samba) Joao Gilberto - Interpreta Tom Jobim {EMI 364 748208 2, Brazil} - 1988, APE (image+.cue) lossless

(Bossa Nova, Brazilian, Samba) Joao Gilberto - Interpreta Tom Jobim {EMI 364 748208 2, Brazil} - 1988, APE (image+.cue) lossless
Треклист:
João Gilberto - Interpreta Tom Jobim
Жанр: Bossa Nova, Brazilian, Samba
Страна-производитель диска: Brazil
Год издания диска: 1988
Издатель (лейбл): EMI
Номер по каталогу: 364 748208 2
Страна исполнителя: Brazil
Аудио кодек: APE (*.ape)
Тип рипа: image+.cue
Битрейт аудио: lossless
Продолжительность: 00:25:21
Источник (релизер): barin99
Наличие сканов в содержимом раздачи: да
Треклист:
01. A Felicidade
02. Desafinado
03. Insensatez
04. Este Seu Olhar
05. Chega de Saudade
06. Meditação
07. Samba de Uma Nota Só
08. O Nosso Amor
09. O Amor Em Paz
10. Só Em Teus Braços
11. Corcovado
12. Discussão
Recorded: 1958-1961
Credits▼
* Artwork By – Rosa Maria
* Liner Notes – Paulo Cotrim
 
Лог создания рипа (EAC Log)
Exact Audio Copy V0.99 prebeta 5 from 4. May 2009
EAC extraction logfile from 1. September 2010, 20:48
Joгo Gilberto / Interpreta Tom Jobim
Used drive : TSSTcorpDVD+-RW TS-U633A Adapter: 0 ID: 1
Read mode : Secure
Utilize accurate stream : Yes
Defeat audio cache : Yes
Make use of C2 pointers : No
Read offset correction : 6
Overread into Lead-In and Lead-Out : No
Fill up missing offset samples with silence : Yes
Delete leading and trailing silent blocks : No
Null samples used in CRC calculations : Yes
Used interface : Native Win32 interface for Win NT & 2000
Used output format : Internal WAV Routines
Sample format : 44.100 Hz; 16 Bit; Stereo
TOC of the extracted CD
Track | Start | Length | Start sector | End sector
---------------------------------------------------------
1 | 0:00.00 | 2:52.38 | 0 | 12937
2 | 2:52.38 | 1:58.50 | 12938 | 21837
3 | 4:51.13 | 2:25.65 | 21838 | 32777
4 | 7:17.03 | 2:14.40 | 32778 | 42867
5 | 9:31.43 | 2:01.20 | 42868 | 51962
6 | 11:32.63 | 1:45.60 | 51963 | 59897
7 | 13:18.48 | 1:37.45 | 59898 | 67217
8 | 14:56.18 | 2:25.52 | 67218 | 78144
9 | 17:21.70 | 2:22.43 | 78145 | 88837
10 | 19:44.38 | 1:47.10 | 88838 | 96872
11 | 21:31.48 | 1:59.12 | 96873 | 105809
12 | 23:30.60 | 1:50.40 | 105810 | 114099
Range status and errors
Selected range
Filename C:\_Arc\EAC_Out\Joгo Gilberto - Interpreta Tom Jobim\Joгo Gilberto - Interpreta Tom Jobim.wav
Peak level 81.2 %
Range quality 100.0 %
Copy CRC AF9E5DF8
Copy OK
No errors occurred
AccurateRip summary
Track 1 not present in database
Track 2 not present in database
Track 3 not present in database
Track 4 not present in database
Track 5 not present in database
Track 6 not present in database
Track 7 not present in database
Track 8 not present in database
Track 9 not present in database
Track 10 not present in database
Track 11 not present in database
Track 12 not present in database
None of the tracks are present in the AccurateRip database
End of status report
 
Содержание индексной карты (.CUE)
REM GENRE Jazz
REM DISCID 9E05F10C
REM COMMENT "ExactAudioCopy v0.99pb5"
PERFORMER "Joao Gilberto"
TITLE "Interpreta Tom Jobim"
FILE "Joao Gilberto - Interpreta Tom Jobim.ape" WAVE
TRACK 01 AUDIO
TITLE "A Felicidade"
PERFORMER "Joao Gilberto"
INDEX 01 00:00:00
TRACK 02 AUDIO
TITLE "Desafinado"
PERFORMER "Joao Gilberto"
INDEX 00 02:50:63
INDEX 01 02:52:38
TRACK 03 AUDIO
TITLE "Insensatez"
PERFORMER "Joao Gilberto"
INDEX 01 04:51:13
TRACK 04 AUDIO
TITLE "Este seu Olhar"
PERFORMER "Joao Gilberto"
INDEX 00 07:15:50
INDEX 01 07:17:03
TRACK 05 AUDIO
TITLE "Chega de Saudade"
PERFORMER "Joao Gilberto"
INDEX 00 09:30:03
INDEX 01 09:31:43
TRACK 06 AUDIO
TITLE "Meditacao"
PERFORMER "Joao Gilberto"
INDEX 00 11:31:60
INDEX 01 11:32:63
TRACK 07 AUDIO
TITLE "Samba de Uma Nota So"
PERFORMER "Joao Gilberto"
INDEX 00 13:16:73
INDEX 01 13:18:48
TRACK 08 AUDIO
TITLE "O Nosso Amor"
PERFORMER "Joao Gilberto"
INDEX 00 14:55:13
INDEX 01 14:56:18
TRACK 09 AUDIO
TITLE "O Amor em Paz"
PERFORMER "Joao Gilberto"
INDEX 00 17:20:15
INDEX 01 17:21:70
TRACK 10 AUDIO
TITLE "So em teus Bracos"
PERFORMER "Joao Gilberto"
INDEX 00 19:42:63
INDEX 01 19:44:38
TRACK 11 AUDIO
TITLE "Corcovado"
PERFORMER "Joao Gilberto"
INDEX 00 21:29:58
INDEX 01 21:31:48
TRACK 12 AUDIO
TITLE "Discussao"
PERFORMER "Joao Gilberto"
INDEX 00 23:29:28
INDEX 01 23:30:60
 
AMG
"When talking about bossa nova, perhaps the signature pop music sound of Brazil, frequently the first name to come to one's lips is that of Antonio Carlos Jobim. With songs like 'The Girl From Ipanema' and 'Desafindo,' Jobim pretty much set the standard for the creation of the bossa nova in the mid-'50s. However, as is often the case, others come along and take the genre in a new direction, reinventing through radical reinterpretation, be it lyrically, rhythmically, or in live performance, making the music theirs. And if Jobim gets credit for laying the foundation of bossa nova, then the genre was brilliantly reimagined (and, arguably, defined) by the singer/songwriter and guitarist João Gilberto. In his native country he is called O Mito (The Legend), a deserving nickname, for since he began recording in late '50s Gilberto, with his signature soft, near-whispering croon, set a standard few have equaled.
Born in 1931 in Juazeiro in the northeastern section of Brazil known as Bahia, Gilberto seemed obsessed with music almost from the moment he emerged from the womb. His grandfather bought him his first guitar at age 14 (much to the dismay of João's father). Within a year, the result of near constant practicing, he was the leader of a band made up of school friends. During this time Gilberto was absorbing the rhythmic subtlety of the Brazilian pop songs of the day, while also taking in the rich sounds of swing jazz (Duke Ellington and Tommy Dorsey), as well as the light opera singing of Jeanette MacDonald. At 18, Gilberto gave up on his small town life and headed to Bahia's largest city, Salvador, to get a foothold in the music industry performing on live radio shows. Although he was given the opportunity to sing, instant stardom was not in the offing, but his brief appearances on the radio brought him to the attention of Antonio Maria, who wanted Gilberto to become the lead singer for the popular radio band Garotos da Lua (Boys From the Moon) and move to Rio de Janeiro.
Gilberto stayed in the band only a year. He was fired after the rest of the group could take no more of his lackadaisical attitude. Gilberto was frequently late for rehearsals and performances, and in a move reminiscent of American pop star Sly Stone, would occasionally not show up at all. After his dismissal from the group Gilberto lived a seminomadic life. For years he had no fixed address, drifting from friend to friend and acquaintance to acquaintance, living off their kindness and rarely if ever contributing to the household expenses. Evidently Gilberto was such charming company that his emotional carelessness and fiscal apathy were never an issue — that or he had extremely patient and generous friends. It was during this underachieving bohemian period that Gilberto kept an extremely low profile. Instead of using his time with Garotos da Luna as a springboard for other recording and performing possibilities, he became apathetic, constantly smoking large quantities of marijuana, playing the odd club gig, and refusing work he considered beneath him (this included gigs at clubs where people talked during the performance). Although gifted with considerable talent as a singer and guitar player, it seemed as though Gilberto would fail to attain the success and notoriety he deserved if only due to apathy that verged on lethargy.
After nearly a decade of aimlessness Gilberto joined forces with singer Luis Telles, who encouraged Gilberto to leave Rio for a semibucolic life in the city of Pôrto Alegre. Telles, who functioned as a combination public relations guru and sugar daddy, made sure the demanding Gilberto wanted for nothing and would concentrate on his music. It turned out to be a successful, if expensive strategy. Within a few months Gilberto (who at this point had given up his prodigious marijuana consumption and was now partaking in nothing stronger than fruit juice) was the toast of Pôrto Alegre, the musician everyone wanted to see. It was also during this extended apprenticeship that Gilberto perfected his unique vocal style and guitar playing. So breathy and nasally it is almost defies description, in many ways he uses all the things one is taught not to do as a singer and has made them into an instantly recognizable style. Not even established crooners such as Bing Crosby and Perry Como sang more quietly or with less vibrato. This, along with his rhythmically idiosyncratic approach to playing the guitar — an intensely syncopated plucking of the strings that flowed with his singing — made for some exhilarating music, and by the time of his first record, Chega de Saudade (1959), Gilberto became widely known as the man who made bossa nova what it is.
True to form, however, Gilberto took the road less traveled, and after the success of his debut record and the two follow-up releases, he left Brazil to settle in the United States, where he lived until 1980. During this period he recorded some amazing records, working with saxophonist Stan Getz and recording music by older Brazilian songwriters such as Dorival Caymmi and Ary Barroso. He returned to Brazil in the early '80s and since then has worked with virtually every big name in Brazilian pop, including Gilberto Gil, Caetano Veloso, Maria Bethania, Gal Costa, and Chico Buarque. He never saw record sales like the aforementioned performers, but all of them regard him as a profound influence on their work. True to his image as enigmatic and eccentric, Gilberto lives a semireclusive lifestyle secure in the knowledge that, decades ago, he changed the course of Brazilian culture by making the bossa nova his music, as well as the music of Brazil."
... Отличный альбом! ...
22:58
546
Нет комментариев. Ваш будет первым!