Поиск

(Bossa Nova, Brazilian Jazz) VA - O Fino da Bossa (1964) {Alaide Costa, Jorge Ben, Paulinho Nogueira, Zimbo Trio, Nara Leao, etc} - 1994, FLAC (tracks+.cue) lossless

Треклист:
Various Artists
O Fino da Bossa (1964)
Recorded at the Paramount Theatre in São Paulo, 25th of May, 1964



.
Жанр: Bossa Nova, Brazilian Jazz | Страна: Brazil
Дата выпуска альбома / диска: 1964 / 1994 | Производитель диска: RGE Brasil
Аудио кодек: FLAC | Тип рипа: tracks+.cue | Битрейт аудио: lossless
+ PNG art scans
Формат: Live
Источник: original CD, ripped by Flabber
Продолжительность: 42:29


TRACKLiST:
01. Alaide Costa - Onde Esta Voce (4:00)
02. Zimbo Trio - Garota de Ipanema (4:22)
03. Paulinho Nogueira - Selencao de sambas: Gosto que me enrosco -
Agora e cinza - Duas contas - Bossa na praia (4:16)
04. Ana Lucia - Tem Do (3:01)
05. Rosinha de Valenca - Consolacao (6:36)
06. Jorge Ben - Chove Chuva (3:52)
07. Wanda - Desafinado (3:53)
08. Nara Leao - Maria Moita (2:03)
09. Oscar Castro Neves - Berimbau (10:26)
.
 
EAC log
Exact Audio Copy V0.99 prebeta 5 from 4. May 2009
EAC extraction logfile from 18. January 2011, 3:36
Various / O Fino da Bossa
Used drive : PLEXTOR DVDR PX-880SA Adapter: 0 ID: 0
Read mode : Secure
Utilize accurate stream : Yes
Defeat audio cache : Yes
Make use of C2 pointers : No
Read offset correction : 6
Overread into Lead-In and Lead-Out : No
Fill up missing offset samples with silence : Yes
Delete leading and trailing silent blocks : No
Null samples used in CRC calculations : Yes
Used interface : Native Win32 interface for Win NT & 2000
Gap handling : Appended to previous track
Used output format : User Defined Encoder
Selected bitrate : 768 kBit/s
Quality : High
Add ID3 tag : No
Command line compressor : C:\Program Files (x86)\Exact Audio Copy\FLAC\FLAC.EXE
Additional command line options : -8 -V -T "ARTIST=%a" -T "TITLE=%t" -T "ALBUM=%g" -T "DATE=%y" -
T "TRACKNUMBER=%n" -T "TOTALTRACKS=%x" -T "GENRE=%m" -T "ALBUM ARTIST=%v" -T "ALBUMARTIST=%v" -
T "COMMENT=EAC V0.99 prebeta 5, Secure Mode, Test & Copy, Accurat
TOC of the extracted CD
Track | Start | Length | Start sector | End sector
---------------------------------------------------------
1 | 0:00.00 | 4:00.37 | 0 | 18036
2 | 4:00.37 | 4:22.25 | 18037 | 37711
3 | 8:22.62 | 4:16.10 | 37712 | 56921
4 | 12:38.72 | 3:01.55 | 56922 | 70551
5 | 15:40.52 | 6:36.05 | 70552 | 100256
6 | 22:16.57 | 3:52.58 | 100257 | 117714
7 | 26:09.40 | 3:53.57 | 117715 | 135246
8 | 30:03.22 | 2:03.70 | 135247 | 144541
9 | 32:07.17 | 10:26.68 | 144542 | 191559
Track 1
Filename D:\01 - Alaide Costa - Onde Esta Voce.wav
Pre-gap length 0:00:02.00
Peak level 74.2 %
Track quality 100.0 %
Test CRC 7D17044A
Copy CRC 7D17044A
Track not present in AccurateRip database
Copy OK
Track 2
Filename D:\02 - Zimbo Trio - Garota de Ipanema.wav
Peak level 83.7 %
Track quality 99.9 %
Test CRC 45FEC66C
Copy CRC 45FEC66C
Track not present in AccurateRip database
Copy OK
Track 3
Filename D:\03 - Paulinho Nogueira - Selecao de sambas.wav
Peak level 76.6 %
Track quality 100.0 %
Test CRC 74F327B3
Copy CRC 74F327B3
Track not present in AccurateRip database
Copy OK
Track 4
Filename D:\04 - Ana Lucia - Tem Do.wav
Peak level 80.1 %
Track quality 100.0 %
Test CRC F52DB994
Copy CRC F52DB994
Track not present in AccurateRip database
Copy OK
Track 5
Filename D:\05 - Rosinha de Valenca - Consolacao.wav
Peak level 88.8 %
Track quality 100.0 %
Test CRC AB5FD4CA
Copy CRC AB5FD4CA
Track not present in AccurateRip database
Copy OK
Track 6
Filename D:\06 - Jorge Ben - Chove Chuva.wav
Peak level 91.9 %
Track quality 99.9 %
Test CRC 451333CF
Copy CRC 451333CF
Track not present in AccurateRip database
Copy OK
Track 7
Filename D:\07 - Wanda - Desafinado.wav
Peak level 99.5 %
Track quality 99.9 %
Test CRC C29D39A1
Copy CRC C29D39A1
Track not present in AccurateRip database
Copy OK
Track 8
Filename D:\08 - Nara Leao - Maria Moita.wav
Peak level 78.9 %
Track quality 100.0 %
Test CRC A563D570
Copy CRC A563D570
Track not present in AccurateRip database
Copy OK
Track 9
Filename D:\09 - Oscar Castro Neves - Berimbau.wav
Peak level 80.1 %
Track quality 100.0 %
Test CRC C5FC24DE
Copy CRC C5FC24DE
Track not present in AccurateRip database
Copy OK
None of the tracks are present in the AccurateRip database
No errors occurred
End of status report
 
*.cue
REM GENRE Samba
REM DATE 1964
REM DISCID 6F09FA09
REM COMMENT "ExactAudioCopy v0.99pb5"
CATALOG 0000000000000
PERFORMER "Various"
TITLE "O Fino da Bossa"
FILE "01 - Alaide Costa - Onde Esta Voce.wav" WAVE
TRACK 01 AUDIO
TITLE "Onde Esta Voce"
PERFORMER "Alaide Costa"
INDEX 01 00:00:00
FILE "02 - Zimbo Trio - Garota de Ipanema.wav" WAVE
TRACK 02 AUDIO
TITLE "Garota de Ipanema"
PERFORMER "Zimbo Trio"
INDEX 01 00:00:00
FILE "03 - Paulinho Nogueira - Selecao de sambas.wav" WAVE
TRACK 03 AUDIO
TITLE "Selecao de sambas"
PERFORMER "Paulinho Nogueira"
INDEX 01 00:00:00
FILE "04 - Ana Lucia - Tem Do.wav" WAVE
TRACK 04 AUDIO
TITLE "Tem Do"
PERFORMER "Ana Lucia"
INDEX 01 00:00:00
FILE "05 - Rosinha de Valenca - Consolacao.wav" WAVE
TRACK 05 AUDIO
TITLE "Consolacao"
PERFORMER "Rosinha de Valenca"
INDEX 01 00:00:00
FILE "06 - Jorge Ben - Chove Chuva.wav" WAVE
TRACK 06 AUDIO
TITLE "Chove Chuva"
PERFORMER "Jorge Ben"
INDEX 01 00:00:00
FILE "07 - Wanda - Desafinado.wav" WAVE
TRACK 07 AUDIO
TITLE "Desafinado"
PERFORMER "Wanda"
INDEX 01 00:00:00
FILE "08 - Nara Leao - Maria Moita.wav" WAVE
TRACK 08 AUDIO
TITLE "Maria Moita"
PERFORMER "Nara Leao"
INDEX 01 00:00:00
FILE "09 - Oscar Castro Neves - Berimbau.wav" WAVE
TRACK 09 AUDIO
TITLE "Berimbau"
PERFORMER "Oscar Castro Neves"
INDEX 01 00:00:00
 
Audiochecker’s log
AUDIOCHECKER v2.0 beta (build 457) - by Dester - opdester@freemail.hu
~~~~~~~~~~~~~~~~~~~~~~~~~~~~~~~~~~
Started at: четверг, 03. 02. 2011. - 15:16.53
9 files found
1 -===- F:\My Documents\Music\VA - O Fino da Bossa (1964) 1994 [flac]\01 - Alaide Costa - Onde Esta Voce.flac
Extracted successfully
Conclusion: this track is CDDA with probability 99%
Tempfile successfully deleted.
2 -===- F:\My Documents\Music\VA - O Fino da Bossa (1964) 1994 [flac]\02 - Zimbo Trio - Garota de Ipanema.flac
Extracted successfully
Conclusion: this track is CDDA with probability 100%
Tempfile successfully deleted.
3 -===- F:\My Documents\Music\VA - O Fino da Bossa (1964) 1994 [flac]\03 - Paulinho Nogueira - Selecao de sambas.flac
Extracted successfully
Conclusion: this track is CDDA with probability 100%
Tempfile successfully deleted.
4 -===- F:\My Documents\Music\VA - O Fino da Bossa (1964) 1994 [flac]\04 - Ana Lucia - Tem Do.flac
Extracted successfully
Conclusion: this track is CDDA with probability 100%
Tempfile successfully deleted.
5 -===- F:\My Documents\Music\VA - O Fino da Bossa (1964) 1994 [flac]\05 - Rosinha de Valenca - Consolacao.flac
Extracted successfully
Conclusion: this track is CDDA with probability 100%
Tempfile successfully deleted.
6 -===- F:\My Documents\Music\VA - O Fino da Bossa (1964) 1994 [flac]\06 - Jorge Ben - Chove Chuva.flac
Extracted successfully
Conclusion: this track is CDDA with probability 100%
Tempfile successfully deleted.
7 -===- F:\My Documents\Music\VA - O Fino da Bossa (1964) 1994 [flac]\07 - Wanda - Desafinado.flac
Extracted successfully
Conclusion: this track is CDDA with probability 99%
Tempfile successfully deleted.
8 -===- F:\My Documents\Music\VA - O Fino da Bossa (1964) 1994 [flac]\08 - Nara Leao - Maria Moita.flac
Extracted successfully
Conclusion: this track is CDDA with probability 100%
Tempfile successfully deleted.
9 -===- F:\My Documents\Music\VA - O Fino da Bossa (1964) 1994 [flac]\09 - Oscar Castro Neves - Berimbau.flac
Extracted successfully
Conclusion: this track is CDDA with probability 99%
Tempfile successfully deleted.
Finished at: четверг, 03. 02. 2011. - 15:36.31 (operation time: 0:19.37)



Сидирую до первых 10-ти скачавших. Далее раздача поддерживается силами скачавших.
Скачали сами - дайте скачать другим. .
20:16
210
Нет комментариев. Ваш будет первым!