Поиск

(Bossa Nova, Brazilian Jazz) [CD] Maucha Adnet - Songs I Learned from Jobim - 1997 (Japan Edition), FLAC (tracks+.cue), lossless

(Bossa Nova, Brazilian Jazz) [CD] Maucha Adnet - Songs I Learned from Jobim - 1997 (Japan Edition), FLAC (tracks+.cue), lossless
Maucha Adnet - Songs I Learned from Jobim
Жанр: Bossa Nova, Brazilian Jazz
Носитель: CD
Страна-производитель диска: Япония
Год издания: 1997
Издатель (лейбл): Venus Records
Номер по каталогу: VHCD-78221
Аудиокодек: FLAC (*.flac)
Тип рипа: tracks+.cue
Битрейт аудио: lossless
Продолжительность: 52:09
Источник (релизер): Dewcey (what)
Наличие сканов в содержимом раздачи: нет
Треклист:
01. Ceu e Mar (4:44)
02. Vai Ficar Bom (3:06)
03. There Will Never Be Another You (3:30)
04. Choro Bandido (3:37)
05. So Danco Samba (3:35)
06. Curare (2:44)
07. Dom de Iludir (3:51)
08. Bim-Bom (3:08)
09. I Concentrate on You (4:57)
10. Aguas de Marco (3:48)
11. Sublime Tortura (2:34)
12. These Foolish Things (3:28)
13. Pra Que Discutir com Madame (3:17)
14. Maracangalha (4:13)
15. Vignette Maracangalha (1:37)
Состав:
Maucha Adnet, Mario Adnet, Alana da Fonseca - vocals
Mario Adnet, Romero Lubambo - guitar
Hugo Fattoruso, Dom Salvador, Alfredo Cardim - piano
Nilson Matta - bass
Jay Ashby - trombone
Z Luis Oliveira - flute
Claudio Roditi, Randy Becker - flugelhorn
Hugo Fattoruso - accordion, keyboards
Recorded at Clinton Studio, New York on January 29-31, February 3-4, 1997.
 
Лог создания рипа
Exact Audio Copy V1.0 beta 3 from 29. August 2011
EAC extraction logfile from 24. August 2014, 12:33
Maucia Adnet / Songs I Learned from Jobim
Used drive : HL-DT-STDVD-ROM GDRH20N Adapter: 4 ID: 0
Read mode : Secure
Utilize accurate stream : Yes
Defeat audio cache : Yes
Make use of C2 pointers : No
Read offset correction : 102
Overread into Lead-In and Lead-Out : No
Fill up missing offset samples with silence : Yes
Delete leading and trailing silent blocks : No
Null samples used in CRC calculations : Yes
Used interface : Native Win32 interface for Win NT & 2000
Gap handling : Appended to previous track
Used output format : User Defined Encoder
Selected bitrate : 896 kBit/s
Quality : High
Add ID3 tag : No
Command line compressor : C:\Program Files (x86)\Exact Audio Copy\Flac\flac.exe
Additional command line options : -6 -V -T "ARTIST=%artist%" -T "TITLE=%title%" -T "ALBUM=%albumtitle%" -T "DATE=%year%" -T "TRACKNUMBER=%tracknr%" -T "GENRE=%genre%" -T "COMMENT=%comment%" -T "BAND=%albuminterpret%" -T "COMPOSER=%composer%" %haslyrics%--tag-from-file=LYRICS="%lyricsfile%"%haslyrics% -T "DISCNUMBER=%cdnumber%" -T "TOTALDISCS=%totalcds%" -T "TOTALTRACKS=%numtracks%" %hascover%--picture="%coverfile%"%hascover% %source% -o %dest%
TOC of the extracted CD
Track | Start | Length | Start sector | End sector
---------------------------------------------------------
1 | 0:00.00 | 4:44.02 | 0 | 21301
2 | 4:44.02 | 3:06.02 | 21302 | 35253
3 | 7:50.04 | 3:30.02 | 35254 | 51005
4 | 11:20.06 | 3:36.64 | 51006 | 67269
5 | 14:56.70 | 3:34.55 | 67270 | 83374
6 | 18:31.50 | 2:44.02 | 83375 | 95676
7 | 21:15.52 | 3:51.05 | 95677 | 113006
8 | 25:06.57 | 3:07.40 | 113007 | 127071
9 | 28:14.22 | 4:56.67 | 127072 | 149338
10 | 33:11.14 | 3:48.02 | 149339 | 166440
11 | 36:59.16 | 2:34.01 | 166441 | 177991
12 | 39:33.17 | 3:28.02 | 177992 | 193593
13 | 43:01.19 | 3:17.02 | 193594 | 208370
14 | 46:18.21 | 4:13.02 | 208371 | 227347
15 | 50:31.23 | 1:36.38 | 227348 | 234585
Track 1
Filename C:\01 - Ceu e Mar.wav
Pre-gap length 0:00:02.00
Peak level 100.0 %
Extraction speed 4.1 X
Track quality 99.9 %
Test CRC A2EBD1BC
Copy CRC A2EBD1BC
Accurately ripped (confidence 1) [D51A8D9E] (AR v1)
Copy OK
Track 2
Filename C:\02 - Vai Ficar Bom.wav
Pre-gap length 0:00:00.60
Peak level 100.0 %
Extraction speed 5.3 X
Track quality 100.0 %
Test CRC 2BCD9139
Copy CRC 2BCD9139
Accurately ripped (confidence 1) [1D6AD979] (AR v1)
Copy OK
Track 3
Filename C:\03 - There will never be another you.wav
Pre-gap length 0:00:01.60
Peak level 100.0 %
Extraction speed 5.7 X
Track quality 100.0 %
Test CRC B424C0E7
Copy CRC B424C0E7
Accurately ripped (confidence 1) [04D5AF9D] (AR v1)
Copy OK
Track 4
Filename C:\04 - Choro Bandido.wav
Pre-gap length 0:00:01.60
Peak level 99.0 %
Extraction speed 4.6 X
Track quality 99.9 %
Test CRC 0E6F117B
Copy CRC 0E6F117B
Accurately ripped (confidence 1) [FB227A84] (AR v1)
Copy OK
Track 5
Filename C:\05 - So Danco Bandido.wav
Pre-gap length 0:00:02.60
Peak level 100.0 %
Extraction speed 4.8 X
Track quality 99.9 %
Test CRC 38806EC7
Copy CRC 38806EC7
Accurately ripped (confidence 1) [AE3BE760] (AR v1)
Copy OK
Track 6
Filename C:\06 - Curare.wav
Pre-gap length 0:00:02.60
Peak level 98.8 %
Extraction speed 5.0 X
Track quality 99.9 %
Test CRC 11D8ECDF
Copy CRC 11D8ECDF
Accurately ripped (confidence 1) [B22C1969] (AR v1)
Copy OK
Track 7
Filename C:\07 - Dom de Iludir.wav
Pre-gap length 0:00:02.60
Peak level 99.9 %
Extraction speed 6.1 X
Track quality 99.9 %
Test CRC DBBC9716
Copy CRC DBBC9716
Accurately ripped (confidence 1) [A03152F2] (AR v1)
Copy OK
Track 8
Filename C:\08 - Bim-Bom.wav
Pre-gap length 0:00:01.60
Peak level 99.9 %
Extraction speed 5.9 X
Track quality 99.9 %
Test CRC 3D77BFA4
Copy CRC 3D77BFA4
Accurately ripped (confidence 1) [71A9B3A8] (AR v1)
Copy OK
Track 9
Filename C:\09 - I Concentrate on You.wav
Pre-gap length 0:00:02.60
Peak level 99.2 %
Extraction speed 6.9 X
Track quality 100.0 %
Test CRC 66A7E9BB
Copy CRC 66A7E9BB
Accurately ripped (confidence 1) [6BE1D15B] (AR v1)
Copy OK
Track 10
Filename C:\10 - Aguas de Marco.wav
Pre-gap length 0:00:02.60
Peak level 100.0 %
Extraction speed 6.9 X
Track quality 100.0 %
Test CRC E94C5E93
Copy CRC E94C5E93
Accurately ripped (confidence 1) [42E4305F] (AR v1)
Copy OK
Track 11
Filename C:\11 - Sublime Tortura.wav
Pre-gap length 0:00:02.60
Peak level 99.0 %
Extraction speed 5.6 X
Track quality 99.9 %
Test CRC EF6CB1AB
Copy CRC EF6CB1AB
Accurately ripped (confidence 1) [57B1DF9E] (AR v1)
Copy OK
Track 12
Filename C:\12 - These Foolish Things.wav
Pre-gap length 0:00:02.60
Peak level 98.9 %
Extraction speed 7.2 X
Track quality 100.0 %
Test CRC 12369D33
Copy CRC 12369D33
Accurately ripped (confidence 1) [4083E22E] (AR v1)
Copy OK
Track 13
Filename C:\13 - Ora Qye Discuttier Com Madame.wav
Pre-gap length 0:00:03.60
Peak level 99.2 %
Extraction speed 7.4 X
Track quality 100.0 %
Test CRC 453DF492
Copy CRC 453DF492
Accurately ripped (confidence 1) [D445740C] (AR v1)
Copy OK
Track 14
Filename C:\14 - Maracangalha.wav
Pre-gap length 0:00:02.60
Peak level 100.0 %
Extraction speed 7.8 X
Track quality 100.0 %
Test CRC 6B0E43A3
Copy CRC 6B0E43A3
Accurately ripped (confidence 1) [1209E546] (AR v1)
Copy OK
Track 15
Filename C:\15 - Vignette Maracangalha.wav
Pre-gap length 0:00:02.60
Peak level 99.8 %
Extraction speed 6.6 X
Track quality 100.0 %
Test CRC 9E792C80
Copy CRC 9E792C80
Accurately ripped (confidence 1) [8D3BE705] (AR v1)
Copy OK
All tracks accurately ripped
No errors occurred
End of status report
==== Log checksum F32630A09543D3368024C4EF26BC1E308D54F34F4AC372BEAEB9C0F80507E915 ====
 
Содержание индексной карты (.CUE)
REM GENRE Jazz
REM DATE 1997
REM DISCID DD0C370F
REM COMMENT "ExactAudioCopy v1.0b3"
PERFORMER "Maucha Adnet"
TITLE "Songs I Learned from Jobim"
FILE "01 - Ceu e Mar.wav" WAVE
TRACK 01 AUDIO
TITLE "Ceu e Mar"
PERFORMER "Maucha Adnet"
INDEX 01 00:00:00
TRACK 02 AUDIO
TITLE "Vai Ficar Bom"
PERFORMER "Maucha Adnet"
INDEX 00 04:43:32
FILE "02 - Vai Ficar Bom.wav" WAVE
INDEX 01 00:00:00
TRACK 03 AUDIO
TITLE "There Will Never Be Another You"
PERFORMER "Maucha Adnet"
INDEX 00 03:04:32
FILE "03 - There Will Never Be Another You.wav" WAVE
INDEX 01 00:00:00
TRACK 04 AUDIO
TITLE "Choro Bandido"
PERFORMER "Maucha Adnet"
INDEX 00 03:28:32
FILE "04 - Choro Bandido.wav" WAVE
INDEX 01 00:00:00
TRACK 05 AUDIO
TITLE "So Danco Samba"
PERFORMER "Maucha Adnet"
INDEX 00 03:34:19
FILE "05 - So Danco Samba.wav" WAVE
INDEX 01 00:00:00
TRACK 06 AUDIO
TITLE "Curare"
PERFORMER "Maucha Adnet"
INDEX 00 03:32:10
FILE "06 - Curare.wav" WAVE
INDEX 01 00:00:00
TRACK 07 AUDIO
TITLE "Dom de Iludir"
PERFORMER "Maucha Adnet"
INDEX 00 02:41:32
FILE "07 - Dom de Iludir.wav" WAVE
INDEX 01 00:00:00
TRACK 08 AUDIO
TITLE "Bim-Bom"
PERFORMER "Maucha Adnet"
INDEX 00 03:49:35
FILE "08 - Bim-Bom.wav" WAVE
INDEX 01 00:00:00
TRACK 09 AUDIO
TITLE "I Concentrate on You"
PERFORMER "Maucha Adnet"
INDEX 00 03:04:70
FILE "09 - I Concentrate on You.wav" WAVE
INDEX 01 00:00:00
TRACK 10 AUDIO
TITLE "Aguas de Marco"
PERFORMER "Maucha Adnet"
INDEX 00 04:54:22
FILE "10 - Aguas de Marco.wav" WAVE
INDEX 01 00:00:00
TRACK 11 AUDIO
TITLE "Sublime Tortura"
PERFORMER "Maucha Adnet"
INDEX 00 03:45:32
FILE "11 - Sublime Tortura.wav" WAVE
INDEX 01 00:00:00
TRACK 12 AUDIO
TITLE "These Foolish Things"
PERFORMER "Maucha Adnet"
INDEX 00 02:31:31
FILE "12 - These Foolish Things.wav" WAVE
INDEX 01 00:00:00
TRACK 13 AUDIO
TITLE "Pra Que Discutir com Madame"
PERFORMER "Maucha Adnet"
INDEX 00 03:24:32
FILE "13 - Pra Que Discutir com Madame.wav" WAVE
INDEX 01 00:00:00
TRACK 14 AUDIO
TITLE "Maracangalha"
PERFORMER "Maucha Adnet"
INDEX 00 03:14:32
FILE "14 - Maracangalha.wav" WAVE
INDEX 01 00:00:00
TRACK 15 AUDIO
TITLE "Vignette Maracangalha"
PERFORMER "Maucha Adnet"
INDEX 00 04:10:32
FILE "15 - Vignette Maracangalha.wav" WAVE
INDEX 01 00:00:00
 
Отчет CUETools
[CUETools log; Date: 04.09.2014 17:29:01; Version: 2.1.5]
[CTDB TOCID: HatKcmH8IYQED4_m88AkVp2xY70-] disk not present in database.
[AccurateRip ID: 001dc792-014f253b-dd0c370f] found.
Track [ CRC | V2 ] Status
01 [d51a8d9e|6fb4e59c] (1+0/1) Accurately ripped
02 [1d6ad979|eed2f142] (1+0/1) Accurately ripped
03 [04d5af9d|50d0ecb7] (1+0/1) Accurately ripped
04 [fb227a84|54e6e9fb] (1+0/1) Accurately ripped
05 [ae3be760|06a68649] (1+0/1) Accurately ripped
06 [b22c1969|c36c849e] (1+0/1) Accurately ripped
07 [a03152f2|75988958] (1+0/1) Accurately ripped
08 [71a9b3a8|05d428dd] (1+0/1) Accurately ripped
09 [6be1d15b|28d3de6e] (1+0/1) Accurately ripped
10 [42e4305f|5757f47f] (1+0/1) Accurately ripped
11 [57b1df9e|9e8d76de] (1+0/1) Accurately ripped
12 [4083e22e|1650b11e] (1+0/1) Accurately ripped
13 [d445740c|72225654] (1+0/1) Accurately ripped
14 [1209e546|e9222bbc] (1+0/1) Accurately ripped
15 [8d3be705|49b8be3a] (1+0/1) Accurately ripped
Track Peak [ CRC32 ] [W/O NULL] [ LOG ]
-- 100,0 [F0EFD2A2] [6342DCFD]
01 100,0 [A2EBD1BC] [87A1181C] CRC32
02 100,0 [2BCD9139] [3154FD0C] CRC32
03 100,0 [B424C0E7] [C82FC9CD] CRC32
04 99,0 [0E6F117B] [6F1B2847] CRC32
05 100,0 [38806EC7] [609FE417] CRC32
06 98,8 [11D8ECDF] [990732FE] CRC32
07 99,9 [DBBC9716] [16AAF0FA] CRC32
08 99,9 [3D77BFA4] [147F3D38] CRC32
09 99,1 [66A7E9BB] [D3533B94] CRC32
10 100,0 [E94C5E93] [C7C7B8C1] CRC32
11 99,0 [EF6CB1AB] [01929CBF] CRC32
12 98,9 [12369D33] [059A256A] CRC32
13 99,2 [453DF492] [2CDC8FB9] CRC32
14 100,0 [6B0E43A3] [B6FBCEDE] CRC32
15 99,8 [9E792C80] [1E870C6B] CRC32
 
Review by Dr. Judith Schlesinger
This is a refreshingly innovative tribute to Antonio Carlos Jobim, since only three of the fifteen tracks were actually written or conceived by the legendary Brazilian genius. The rest were favorites of his that were written by others, such as his lesser-known countrymen (Johnny Alf, Bororo and Edu Lobo), more internationally recognized names (Caetano Veloso, Joao Gilberto), and Maucha Adnet and her brother, Mario. There's also a trio of jazz standards, including Cole Porter's "I Concentrate on You," which Jobim wished he himself had written.
We know this because of Maucha Adnet, the Rio-born vocalist who toured with Jobim for ten years and learned the songs on this release from him. Jobim described Adnet's voice as "deep, rich and mysterious"—and I would add "supple," "sultry" and "soulful" to that, not just because of the alliteration. Adnet's beautiful instrument gets the perfect setting from these musicians and arrangements: not only is the estimable Trio da Paz on this recording (Romero Lubambo, Nilson Matta, Duduka Da Fonseca), but there are wonderful performances from trombonist Jay Ashby, flugellers Claudio Roditi and Randy Brecker, and pianist Hugo Fattoruso, whose spare, lyrical style evokes The Man himself.
It's difficult to pluck highlights, but to these ears, Adnet sings "I Concentrate on You" as if Jobim had written it, giving it his patented sensual treatment. "So Danco Samba" is a party (Adnet includes Jobim's familiar "A Train" reference), as is the joyful closer. Then there's the gorgeous, rarely-heard "Dom de Iludir" and "Choro Bandido" and "Ceu e Mar," the tuneful, welcoming opener.
Songs I Learned From Jobim contains a full range of moods, fine musicianship and excellent material. It's also an must-hear for Jobim completists, since it offers such unexpected and delightful insights into his musical self.
16:36
276
Нет комментариев. Ваш будет первым!