Поиск

(Bossa Nova, Brazilian Jazz) Baden Powell - O Universo Musical de Baden Powell (2CD) - 2002, FLAC (image+.cue), lossless

(Bossa Nova, Brazilian Jazz) Baden Powell - O Universo Musical de Baden Powell (2CD) - 2002, FLAC (image+.cue), lossless
Треклист:
Baden Powell - O Universo Musical de Baden Powell
Жанр: Bossa Nova, Brazilian Jazz
Страна-производитель диска: Франция
Год издания: 2002
Издатель (лейбл): Universal Music S.A.
Номер по каталогу: 017 301-2
Страна: Бразилия
Аудиокодек: FLAC (*.flac)
Тип рипа: image+.cue
Битрейт аудио: lossless
Продолжительность: CD1 - 56:52; CD2 - 66:00
Источник (релизер): ROB42 (hqshare)
Наличие сканов в содержимом раздачи: да
Треклист:
CD1 - The Barclay Years 1964-1972:
01. Berimbau (3:00)
02. Garota De Ipanema (3:00)
03. Deve Ser Amor (3:54)
04. Samba Triste (6:27)
05. Jesus Alegria Dos Homens (4:21)
06. Folha Morta (4:22)
07. Formosa (2:50)
08. Vou Deitar E Rolar (5:38)
09. Dora (3:04)
10. Ingenuo (5:31)
11. Pai (5:03)
12. Maritima (4:40)
13. Choro Para Metronomo (3:02)
14. Mais Ne Rigole Pas (1:54)
CD2 - The Festival Years 1970-1977:
01. Xango (5:27)
02. Samba De Aviao (3:06)
03. A Primeira Vez (1:44)
04. Eu Vim Da Bahia (5:09)
05. Feitinha Pro Poeta (3:20)
06. Canto De Ossanha (5:22)
07. Saudades De Marcia (3:18)
08. 'Round Midnight (4:34)
09. Asa Branca (4:42)
10. Samba Em Preludio (4:37)
11. Samba Do Pintinho (4:29)
12. Coisa No. 1 (3:02)
13. Discussao (3:59)
14. Amelia (4:01)
15. Samba De Bencao (9:03)
 
Лог создания рипа CD1
EAC extraction logfile from 19. January 2006, 18:23 for CD
Baden Powell / O Universo Musical de Baden Powell
Used drive : HL-DT-STDVD-ROM GDR8162B Adapter: 1 ID: 1
Read mode : Secure with NO C2, accurate stream, disable cache
Read offset correction : 102
Overread into Lead-In and Lead-Out : No
Used output format : C:\Programmi\EAC\bin\flac.exe (User Defined Encoder)
320 kBit/s
Additional command line options : -T "artist=%a" -T "album=%g" -T "date=%y" -T "genre=%m" %s
Other options :
Fill up missing offset samples with silence : Yes
Delete leading and trailing silent blocks : No
Installed external ASPI interface
Range status and errors
Selected range
Filename C:\EAC\CDImage.Flac.wav
Peak level 100.0 %
Range quality 100.0 %
CRC DD559169
Copy OK
No errors occured
End of status report
 
Лог создания рипа CD2
EAC extraction logfile from 19. January 2006, 18:35 for CD
Baden Powell / O Universo Musical de Baden Powell: The Festival Years 1970-1977
Used drive : HL-DT-STDVD-ROM GDR8162B Adapter: 1 ID: 1
Read mode : Secure with NO C2, accurate stream, disable cache
Read offset correction : 102
Overread into Lead-In and Lead-Out : No
Used output format : C:\Programmi\EAC\bin\flac.exe (User Defined Encoder)
320 kBit/s
Additional command line options : -T "artist=%a" -T "album=%g" -T "date=%y" -T "genre=%m" %s
Other options :
Fill up missing offset samples with silence : Yes
Delete leading and trailing silent blocks : No
Installed external ASPI interface
Range status and errors
Selected range
Filename C:\EAC\CDImage.Flac.wav
Peak level 97.5 %
Range quality 100.0 %
CRC 0EABD01C
Copy OK
No errors occured
End of status report
 
Содержание индексной карты (.CUE) CD1
REM GENRE Jazz
REM DATE 2002
REM DISCID C70D540E
REM COMMENT "ExactAudioCopy v0.95b2"
PERFORMER "Baden Powell"
TITLE "O Universo Musical de Baden Powell CD1"
FILE "Baden Powell - O Universo Musical de Baden Powell CD1.wav" WAVE
TRACK 01 AUDIO
TITLE "Berimbau"
PERFORMER "Baden Powell"
ISRC FRZ016401780
FLAGS DCP
INDEX 01 00:00:00
TRACK 02 AUDIO
TITLE "Garota de Ipanema"
PERFORMER "Baden Powell"
ISRC FRZ016401760
FLAGS DCP
INDEX 01 03:00:66
TRACK 03 AUDIO
TITLE "Deve ser amor"
PERFORMER "Baden Powell"
ISRC FRZ016401770
FLAGS DCP
INDEX 00 06:00:36
INDEX 01 06:01:06
TRACK 04 AUDIO
TITLE "Samba triste"
PERFORMER "Baden Powell"
ISRC FRZ027280230
FLAGS DCP
INDEX 00 09:53:47
INDEX 01 09:55:17
TRACK 05 AUDIO
TITLE "Jesus alegria dos homens"
PERFORMER "Baden Powell"
ISRC FRZ027280240
FLAGS DCP
INDEX 01 16:22:68
TRACK 06 AUDIO
TITLE "Folha morta"
PERFORMER "Baden Powell"
ISRC FRZ027280250
FLAGS DCP
INDEX 01 20:44:01
TRACK 07 AUDIO
TITLE "Formosa"
PERFORMER "Baden Powell"
ISRC FRZ026980200
FLAGS DCP
INDEX 00 25:04:41
INDEX 01 25:06:11
TRACK 08 AUDIO
TITLE "Vou deitar e rolar"
PERFORMER "Baden Powell"
ISRC FRZ027080270
FLAGS DCP
INDEX 00 27:54:45
INDEX 01 27:56:15
TRACK 09 AUDIO
TITLE "Dora"
PERFORMER "Baden Powell"
ISRC FRZ027080280
FLAGS DCP
INDEX 00 33:33:36
INDEX 01 33:35:06
TRACK 10 AUDIO
TITLE "Ingenuo"
PERFORMER "Baden Powell"
ISRC FRZ027080290
FLAGS DCP
INDEX 00 36:38:30
INDEX 01 36:40:00
TRACK 11 AUDIO
TITLE "Pai"
PERFORMER "Baden Powell"
ISRC FRZ027080300
FLAGS DCP
INDEX 00 42:10:23
INDEX 01 42:11:68
TRACK 12 AUDIO
TITLE "Maritima"
PERFORMER "Baden Powell"
ISRC FRZ026980220
FLAGS DCP
INDEX 00 47:13:29
INDEX 01 47:14:74
TRACK 13 AUDIO
TITLE "Choro para metronomo"
PERFORMER "Baden Powell"
ISRC FRZ016401820
FLAGS DCP
INDEX 00 51:53:59
INDEX 01 51:55:29
TRACK 14 AUDIO
TITLE "Mais ne rigole pas"
PERFORMER "Baden Powell"
ISRC FRZ016501440
FLAGS DCP
INDEX 00 54:53:63
INDEX 01 54:57:33
 
Содержание индексной карты (.CUE) CD2
REM GENRE Jazz
REM DATE 2002
REM DISCID D20F780F
REM COMMENT "ExactAudioCopy v0.95b2"
PERFORMER "Baden Powell"
TITLE "O Universo Musical de Baden Powell: The Festival Years 1970-1977"
FILE "Baden Powell - O Universo Musical de Baden Powell CD2.wav" WAVE
TRACK 01 AUDIO
TITLE "Xango"
PERFORMER "Baden Powell"
ISRC FRZ077101060
FLAGS DCP
INDEX 01 00:00:00
TRACK 02 AUDIO
TITLE "Samba do aviao"
PERFORMER "Baden Powell"
ISRC FRZ077101070
FLAGS DCP
INDEX 01 05:27:74
TRACK 03 AUDIO
TITLE "A primeira vez"
PERFORMER "Baden Powell"
ISRC FRZ077602090
FLAGS DCP
INDEX 01 08:34:41
TRACK 04 AUDIO
TITLE "Eu vim da Bahia"
PERFORMER "Baden Powell"
ISRC FRZ077402897
FLAGS DCP
INDEX 01 10:19:03
TRACK 05 AUDIO
TITLE "Feitinha pro poeta"
PERFORMER "Baden Powell"
ISRC FRZ077602120
FLAGS DCP
INDEX 00 15:26:43
INDEX 01 15:28:13
TRACK 06 AUDIO
TITLE "Canto de Ossanha"
PERFORMER "Baden Powell"
ISRC FRZ077502877
FLAGS DCP
INDEX 00 18:47:35
INDEX 01 18:49:05
TRACK 07 AUDIO
TITLE "Saudades de Marcia"
PERFORMER "Baden Powell"
ISRC FRZ077101090
FLAGS DCP
INDEX 00 24:09:44
INDEX 01 24:11:14
TRACK 08 AUDIO
TITLE "Round about midnight"
PERFORMER "Baden Powell"
ISRC FRZ077001320
FLAGS DCP
INDEX 00 27:29:22
INDEX 01 27:29:67
TRACK 09 AUDIO
TITLE "Asa branca"
PERFORMER "Baden Powell"
ISRC FRZ077101100
FLAGS DCP
INDEX 00 32:03:19
INDEX 01 32:04:64
TRACK 10 AUDIO
TITLE "Samba em preludio"
PERFORMER "Baden Powell"
ISRC FRZ077602130
FLAGS DCP
INDEX 01 36:47:15
TRACK 11 AUDIO
TITLE "Samba do Pintinho"
PERFORMER "Baden Powell"
ISRC FRZ077101110
FLAGS DCP
INDEX 00 41:24:13
INDEX 01 41:24:58
TRACK 12 AUDIO
TITLE "Coisa no.1"
PERFORMER "Baden Powell"
ISRC FRZ077602140
FLAGS DCP
INDEX 01 45:54:32
TRACK 13 AUDIO
TITLE "Discussao"
PERFORMER "Baden Powell"
ISRC FRZ077101120
FLAGS DCP
INDEX 00 48:56:16
INDEX 01 48:56:61
TRACK 14 AUDIO
TITLE "Amelia"
PERFORMER "Baden Powell"
ISRC FRZ077402855
FLAGS DCP
INDEX 01 52:56:16
TRACK 15 AUDIO
TITLE "Samba da bencao"
PERFORMER "Baden Powell"
ISRC FRZ077701190
FLAGS DCP
INDEX 00 56:56:01
INDEX 01 56:57:46
 
Отчет CUETools CD1
[CUETools log; Date: 31.08.2012 15:46:35; Version: 2.1.4]
[CTDB TOCID: ntWfDVRd6zRMrkWW2.Km1Mo3e5A-] found.
Track | CTDB Status
1 | (1/1) Accurately ripped
2 | (1/1) Accurately ripped
3 | (1/1) Accurately ripped
4 | (1/1) Accurately ripped
5 | (1/1) Accurately ripped
6 | (1/1) Accurately ripped
7 | (1/1) Accurately ripped
8 | (1/1) Accurately ripped
9 | (1/1) Accurately ripped
10 | (1/1) Accurately ripped
11 | (1/1) Accurately ripped
12 | (1/1) Accurately ripped
13 | (1/1) Accurately ripped
14 | (1/1) Accurately ripped
[AccurateRip ID: 001db390-0140729d-c70d540e] found.
Track [ CRC | V2 ] Status
01 [8a445fc5|9f8ca9ab] (8+0/8) Accurately ripped
02 [7c52437d|7e2adafb] (8+0/8) Accurately ripped
03 [a10368ff|fed8e9ce] (8+0/8) Accurately ripped
04 [815de4c0|3f434e5f] (8+0/8) Accurately ripped
05 [dbe92072|8f63ce0e] (8+0/8) Accurately ripped
06 [317c7d69|89012669] (7+0/7) Accurately ripped
07 [3df6cdf4|0bc0196d] (7+0/7) Accurately ripped
08 [54e89d9e|37516bb7] (7+0/7) Accurately ripped
09 [589da3fb|9547fd89] (7+0/7) Accurately ripped
10 [6a89a889|9b958f12] (7+0/7) Accurately ripped
11 [2c722b41|2b205117] (6+0/6) Accurately ripped
12 [637602f8|d3c59fe7] (6+0/6) Accurately ripped
13 [4b88142f|a9ad3de1] (6+0/6) Accurately ripped
14 [18ab53fa|e956925e] (7+0/7) Accurately ripped
Track Peak [ CRC32 ] [W/O NULL] [ LOG ]
-- 100,0 [DD559169] [2FBF54D3] CRC32
01 75,1 [87E90EE4] [3FFD8E91]
02 82,7 [29521556] [22A96C7C]
03 83,3 [926DA521] [CCEA0AC6]
04 88,8 [9A85CA69] [674F931B]
05 71,2 [199D0289] [28A9A313]
06 58,3 [3534C2DE] [5B7086D1]
07 73,8 [C8C4DEB1] [D5BF82DD]
08 75,4 [4F1A4EF1] [742DC59C]
09 88,6 [A4F46327] [4237D2A5]
10 75,8 [700D952E] [5856DFE5]
11 88,2 [C0697C43] [F2EDAA44]
12 69,6 [29367485] [9642D5C2]
13 100,0 [B1041BF6] [BB97A669]
14 59,0 [5E331EAA] [F75FB1D7]
 
Отчет CUETools CD2
[CUETools log; Date: 31.08.2012 15:47:19; Version: 2.1.4]
[CTDB TOCID: V_hokzwpPWWh7H7JVVxU76jj4YI-] found.
Track | CTDB Status
1 | (2/2) Accurately ripped
2 | (2/2) Accurately ripped
3 | (2/2) Accurately ripped
4 | (2/2) Accurately ripped
5 | (2/2) Accurately ripped
6 | (2/2) Accurately ripped
7 | (2/2) Accurately ripped
8 | (2/2) Accurately ripped
9 | (2/2) Accurately ripped
10 | (2/2) Accurately ripped
11 | (2/2) Accurately ripped
12 | (2/2) Accurately ripped
13 | (2/2) Accurately ripped
14 | (2/2) Accurately ripped
15 | (2/2) Accurately ripped
[AccurateRip ID: 0021bd70-01811afc-d20f780f] found.
Track [ CRC | V2 ] Status
01 [4070fddf|9261e7f7] (08+00/08) Accurately ripped
02 [bd08ab5c|33931b5e] (08+00/08) Accurately ripped
03 [b055f2ae|932e3aca] (08+00/08) Accurately ripped
04 [519118fb|75cdc39e] (08+02/10) Accurately ripped
05 [167c3377|886c303b] (08+02/10) Accurately ripped
06 [d6e0ac86|4c4c3b7b] (08+00/08) Accurately ripped
07 [e326ea44|f095f551] (08+00/08) Accurately ripped
08 [5d7cc7ae|23b1104e] (08+00/08) Accurately ripped
09 [6003b20e|0ea6358b] (08+00/08) Accurately ripped
10 [87ec6e01|54502f71] (08+02/10) Accurately ripped
11 [12cc8972|26cd5e27] (08+02/10) Accurately ripped
12 [0764bb64|3b8b5992] (08+02/10) Accurately ripped
13 [9d9c1414|d2b5ebb8] (08+02/10) Accurately ripped
14 [5fa0ff64|42f5fb2f] (08+02/10) Accurately ripped
15 [386c7ed2|b2402ac6] (07+02/09) Accurately ripped
Track Peak [ CRC32 ] [W/O NULL] [ LOG ]
-- 97,5 [0EABD01C] [08D14549] CRC32
01 91,4 [D4E548C1] [D1698C21]
02 87,0 [AA58FD74] [69948B3A]
03 96,0 [D169AC49] [5AB5DD00]
04 76,7 [749CF568] [6234974E]
05 94,4 [9BC2F2B9] [06FC93ED]
06 78,9 [C9373DDB] [7B15C38F]
07 97,5 [52D72F28] [8BC517A9]
08 61,5 [27D1F7DD] [4949CC0A]
09 93,3 [7F063263] [473C7747]
10 92,8 [FC4DEEFC] [5133CE60]
11 74,3 [93C60EBB] [9B556093]
12 82,1 [11B04CB5] [83B4716C]
13 89,6 [C9E7694D] [CA1B99E2]
14 91,4 [C55639A1] [5B546F8E]
15 91,7 [678C8C90] [D8330BAA]
 
Review by Glenn Astarita
In the early '60s when many Brazilian musicians brought bossa nova to the United States, classically trained guitarist Baden Powell took his guitar to France. Hence, the rest is history, as this Brazilian artist infused his hybrid jazz/classical/bossa nova articulations into the European scene. This program chronicles the work he did for the Barclay (CD one) and Festival (CD two) record companies, spanning the mid-'60s through the late '70s. Throughout these multifarious works, featuring Powell performing solo guitar and with various ensembles, the listener is provided with a radiant glimpse of his virtuosity and depth. On various works, Powell melds a distinct sense of classicism with buoyancy and sophistication. Sure, bossa nova and samba-based rhythms are firmly rooted within his palate. Yet, Powell's insightful ability to step out of preconceived boundaries becomes apparent from the opening moments of disc one. His delicate plucking and strumming are augmented by his penchant for injecting a driving force into many of these compositions, featuring the inherent rhythmic elements of Brazilian music. He performs with horns and strings on certain tracks, amid endeavors with standard rhythm sections and percussionists. Regardless, Powell's artisanship is partly founded upon the jubilance and festive-like environs of a Brazilian carnival. He molds the tried and true into a deeply personalized methodology, witnessed by his rhythmically complex renditions of Monk's "'Round About Midnight" and other works. Sadly, Powell's severe alcoholism took its toll, resulting in his death in 2000.
 
Состав
Baden Powell - Guitar, Vocals
Jean Arpino - Drums
Billy Nencioli - Vocals
Jorge Arena - Percussion
Luigi Trussardi - Bass
Helio Schiavo - Drums
Jorge G. Rezende - Percussion
Luis Agudo - Percussion
Guy Pedersen - Bass
Arthur Motta - Drums
Sam Kelly - Percussion
Ivan Jullien - Trumpet, Conductor
Michel Gaudry - Bass
Pierre-Alain Dahan - Drums
Alfredo Bessa - Percussion, Vocals
Andre Arpino - Drums
Daniel Humair - Drums
Stephane Grappelli - Violin
Nelson Serra Decastro - Drums
По всем вопросам пишите личное сообщение пользователю M0p94ok.
04:57
254
Нет комментариев. Ваш будет первым!