Поиск

(Bossa Nova) Astrud Gilberto - Look To The Rainbow - 1966, FLAC (image+.cue), lossless

Треклист:
Astrud Gilberto - Look To The Rainbow [1966] Жанр: Bossa Nova
Год выпуска диска: 1966
Производитель диска: Россия
Аудио кодек: FLAC
Тип рипа: image+.cue
Битрейт аудио: lossless
Продолжительность: 45:24
Трэклист:
01 - Berimbau
02 - Once Upon A Summertime
03 - Felicidade
04 - I Will Wait For You
05 - Frevo
06 - Maria Quiet
07 - Look To The Rainbow
08 - Bim Bom
09 - Lugar Bonita
10 - El Precio Aprender A Ser So
11 - Shes A Carioca
Bonus (from "A Certain Smile A Certain Sadness")
12 - A Certain Smile
13 - A Certain Sadness
14 - Nega Do Cabelo Duro
15 - So Nice
16 - Voce Ja Foi A Bahia
17 - Portuguese Washerwoman
Доп. информация:
 
EAC log
Exact Audio Copy V0.99 prebeta 4 from 23. January 2008
EAC extraction logfile from 7. February 2009, 19:17
Astrud Gilberto / Look To The Rainbow
Used drive : LITE-ON COMBO SOHC-5236V Adapter: 3 ID: 1
Read mode : Secure
Utilize accurate stream : Yes
Defeat audio cache : Yes
Make use of C2 pointers : No
Read offset correction : 6
Overread into Lead-In and Lead-Out : No
Fill up missing offset samples with silence : Yes
Delete leading and trailing silent blocks : No
Null samples used in CRC calculations : Yes
Used interface : Installed external ASPI interface
Used output format : User Defined Encoder
Selected bitrate : 768 kBit/s
Quality : High
Add ID3 tag : No
Command line compressor : C:\Program Files\Exact Audio Copy\FLAC\FLAC.EXE
Additional command line options : -8 -V -T "ARTIST=%a" -T "TITLE=%t" -T "ALBUM=%g" -T "DATE=%y" -T "TRACKNUMBER=%n" -T "GENRE=%m" -T "COMMENT=EAC FLAC -8" %s
Use compression offset : 0
TOC of the extracted CD
Track | Start | Length | Start sector | End sector
---------------------------------------------------------
1 | 0:00.33 | 2:26.42 | 33 | 11024
2 | 2:27.00 | 3:04.63 | 11025 | 24887
3 | 5:31.63 | 2:47.30 | 24888 | 37442
4 | 8:19.18 | 4:41.70 | 37443 | 58587
5 | 13:01.13 | 2:25.07 | 58588 | 69469
6 | 15:26.20 | 1:55.38 | 69470 | 78132
7 | 17:21.58 | 3:29.07 | 78133 | 93814
8 | 20:50.65 | 1:52.13 | 93815 | 102227
9 | 22:43.03 | 3:19.07 | 102228 | 117159
10 | 26:02.10 | 3:23.43 | 117160 | 132427
11 | 29:25.53 | 2:29.30 | 132428 | 143632
12 | 31:55.08 | 1:29.55 | 143633 | 150362
13 | 33:24.63 | 3:11.40 | 150363 | 164727
14 | 36:36.28 | 2:20.55 | 164728 | 175282
15 | 38:57.08 | 2:38.37 | 175283 | 187169
16 | 41:35.45 | 2:18.55 | 187170 | 197574
17 | 43:54.25 | 1:30.23 | 197575 | 204347
Range status and errors
Selected range
Filename C:\Doc\Rough\Рабочий стол\Astrud Gilberto - Look To The Rainbow\Astrud Gilberto - Look To The Rainbow.wav
Peak level 84.4 %
Range quality 100.0 %
Test CRC 78478D27
Copy CRC 78478D27
Copy OK
No errors occurred
End of status report
05:40
292
Нет комментариев. Ваш будет первым!