Поиск

(bossa nova, acid jazz, downtempo, breaks) Rosalia de Souza - Garota Diferente - 2004, FLAC (tracks+.cue), lossless

(bossa nova, acid jazz, downtempo, breaks) Rosalia de Souza - Garota Diferente - 2004, FLAC (tracks+.cue), lossless
Треклист:
Rosalia de Souza - Garota Diferente
Жанр: bossa nova, acid jazz, downtempo, breaks
Страна-производитель диска: Италия
Год издания диска: 2004
Издатель (лейбл): Schema
Номер по каталогу: SCCD 383
Страна: Бразилия
Аудиокодек: FLAC (*.flac)
Тип рипа: tracks+.cue
Битрейт аудио: lossless
Продолжительность: 1:12:58
Источник (релизер): Toshiro (what.cd)
Наличие сканов в содержимом раздачи: да
Треклист:
01 - Adriana (performed by Five Corners Quintet) (7:11)
02 - Maria Moita (Zero DB rmx) (6:35)
03 - Fica Mal Com Deus (Truby Trio rmx) (7:49)
04 - Samba Novo (Gianluca Petrella rmx) (6:48)
05 - Saudosismo (performed by Povo) (6:36)
06 - Bossa 31 (performed by Gerardo Frisina) (8:04)
07 - Fica Mal Com Deus (Stateless rmx) (8:03)
08 - Zona Sul (Raw Deal rmx) (6:14)
09 - Canto de Ossanha (Big Bang rmx) (6:39)
10 - Bossa 31 (Buscemi 'chilling out in Venice' rmx) (4:14)
11 - Mais (performed by Dining Rooms) (4:43)
 
Лог создания рипа
Exact Audio Copy V0.99 prebeta 5 from 4. May 2009
EAC extraction logfile from 27. June 2010, 9:10
Rosalia De Souza / Garota Diferente
Used drive : LITE-ON LTR-48246S Adapter: 1 ID: 1
Read mode : Secure
Utilize accurate stream : Yes
Defeat audio cache : Yes
Make use of C2 pointers : No
Read offset correction : 6
Overread into Lead-In and Lead-Out : No
Fill up missing offset samples with silence : Yes
Delete leading and trailing silent blocks : No
Null samples used in CRC calculations : Yes
Used interface : Installed external ASPI interface
Gap handling : Appended to previous track
Used output format : User Defined Encoder
Selected bitrate : 768 kBit/s
Quality : High
Add ID3 tag : No
Command line compressor : C:\Program Files\EAC\FLAC\FLAC.EXE
Additional command line options : -6 -V -T "ALBUM=%g" -T "ARTIST=%a" -T "DATE=%y" -T "GENRE=%m" -T "TITLE=%t" -T "TRACKNUMBER=%n" %s -o %d
TOC of the extracted CD
Track | Start | Length | Start sector | End sector
---------------------------------------------------------
1 | 0:00.00 | 7:11.24 | 0 | 32348
2 | 7:11.24 | 6:35.32 | 32349 | 62005
3 | 13:46.56 | 7:48.57 | 62006 | 97162
4 | 21:35.38 | 6:47.71 | 97163 | 127758
5 | 28:23.34 | 6:36.13 | 127759 | 157471
6 | 34:59.47 | 8:04.36 | 157472 | 193807
7 | 43:04.08 | 8:03.32 | 193808 | 230064
8 | 51:07.40 | 6:13.72 | 230065 | 258111
9 | 57:21.37 | 6:38.38 | 258112 | 287999
10 | 64:00.00 | 4:14.26 | 288000 | 307075
11 | 68:14.26 | 4:43.19 | 307076 | 328319
Track 1
Filename D:\temp\Rosalia De Souza - Garota Diferente\01 - Adriana (The Five Corners Quintet Remix).wav
Pre-gap length 0:00:02.00
Peak level 95.8 %
Track quality 100.0 %
Test CRC 8B975421
Copy CRC 8B975421
Copy OK
Track 2
Filename D:\temp\Rosalia De Souza - Garota Diferente\02 - Maria Moita (zero dB Reconstruction).wav
Peak level 99.9 %
Track quality 100.0 %
Test CRC D0F836F6
Copy CRC D0F836F6
Copy OK
Track 3
Filename D:\temp\Rosalia De Souza - Garota Diferente\03 - Fica Mal Com Deus (Trьby Trio Treatment).wav
Peak level 99.9 %
Track quality 100.0 %
Test CRC DAC6EB3E
Copy CRC DAC6EB3E
Copy OK
Track 4
Filename D:\temp\Rosalia De Souza - Garota Diferente\04 - Samba Novo (Gianluca Petrella Remix).wav
Pre-gap length 0:00:00.21
Peak level 99.9 %
Track quality 100.0 %
Test CRC 50D9DFE5
Copy CRC 50D9DFE5
Copy OK
Track 5
Filename D:\temp\Rosalia De Souza - Garota Diferente\05 - Saudosismo (Povo Remix).wav
Pre-gap length 0:00:01.33
Peak level 99.9 %
Track quality 99.9 %
Test CRC F1FC4FC9
Copy CRC F1FC4FC9
Copy OK
Track 6
Filename D:\temp\Rosalia De Souza - Garota Diferente\06 - Bossa 31 (Gerardo Frisina Remix).wav
Pre-gap length 0:00:00.48
Peak level 99.9 %
Track quality 99.9 %
Test CRC 902CF9C8
Copy CRC 902CF9C8
Copy OK
Track 7
Filename D:\temp\Rosalia De Souza - Garota Diferente\07 - Fica Mal Com Deus (Stateless Remix).wav
Peak level 99.9 %
Track quality 100.0 %
Test CRC 36CB295D
Copy CRC 36CB295D
Copy OK
Track 8
Filename D:\temp\Rosalia De Souza - Garota Diferente\08 - Zona Sul (Raw Deal Remix).wav
Peak level 99.9 %
Track quality 100.0 %
Test CRC D06B13BB
Copy CRC D06B13BB
Copy OK
Track 9
Filename D:\temp\Rosalia De Souza - Garota Diferente\09 - Canto De Ossanha (Big Bang Remix).wav
Pre-gap length 0:00:00.33
Peak level 99.9 %
Track quality 100.0 %
Test CRC 0B0376DC
Copy CRC 0B0376DC
Copy OK
Track 10
Filename D:\temp\Rosalia De Souza - Garota Diferente\10 - Bossa 31 (Chilling Out In Venice Mix, Buscemi).wav
Pre-gap length 0:00:01.13
Peak level 99.9 %
Track quality 99.9 %
Test CRC 336621F6
Copy CRC 336621F6
Copy OK
Track 11
Filename D:\temp\Rosalia De Souza - Garota Diferente\11 - Mais (Nu-Folk Mix, The Dining Rooms).wav
Pre-gap length 0:00:00.46
Peak level 93.2 %
Track quality 99.9 %
Test CRC 9D457E1C
Copy CRC 9D457E1C
Copy OK
No errors occurred
End of status report
 
Содержание индексной карты (.CUE)
REM GENRE Lo-Fi
REM DATE 2004
REM DISCID 9B11190B
REM COMMENT "ExactAudioCopy v0.99pb5"
PERFORMER "Rosalia De Souza"
TITLE "Garota Diferente"
FILE "01 - Adriana (The Five Corners Quintet Remix).flac" WAVE
TRACK 01 AUDIO
TITLE "Adriana (The Five Corners Quintet Remix)"
PERFORMER "Rosalia De Souza"
INDEX 01 00:00:00
FILE "02 - Maria Moita (zero dB Reconstruction).flac" WAVE
TRACK 02 AUDIO
TITLE "Maria Moita (zero dB Reconstruction)"
PERFORMER "Rosalia De Souza"
INDEX 01 00:00:00
FILE "03 - Fica Mal Com Deus (Truby Trio Treatment).flac" WAVE
TRACK 03 AUDIO
TITLE "Fica Mal Com Deus (Trüby Trio Treatment)"
PERFORMER "Rosalia De Souza"
INDEX 01 00:00:00
TRACK 04 AUDIO
TITLE "Samba Novo (Gianluca Petrella Remix)"
PERFORMER "Rosalia De Souza"
INDEX 00 07:48:36
FILE "04 - Samba Novo (Gianluca Petrella Remix).flac" WAVE
INDEX 01 00:00:00
TRACK 05 AUDIO
TITLE "Saudosismo (Povo Remix)"
PERFORMER "Rosalia De Souza"
INDEX 00 06:46:38
FILE "05 - Saudosismo (Povo Remix).flac" WAVE
INDEX 01 00:00:00
TRACK 06 AUDIO
TITLE "Bossa 31 (Gerardo Frisina Remix)"
PERFORMER "Rosalia De Souza"
INDEX 00 06:35:40
FILE "06 - Bossa 31 (Gerardo Frisina Remix).flac" WAVE
INDEX 01 00:00:00
FILE "07 - Fica Mal Com Deus (Stateless Remix).flac" WAVE
TRACK 07 AUDIO
TITLE "Fica Mal Com Deus (Stateless Remix)"
PERFORMER "Rosalia De Souza"
INDEX 01 00:00:00
FILE "08 - Zona Sul (Raw Deal Remix).flac" WAVE
TRACK 08 AUDIO
TITLE "Zona Sul (Raw Deal Remix)"
PERFORMER "Rosalia De Souza"
INDEX 01 00:00:00
TRACK 09 AUDIO
TITLE "Canto De Ossanha (Big Bang Remix)"
PERFORMER "Rosalia De Souza"
INDEX 00 06:13:39
FILE "09 - Canto De Ossanha (Big Bang Remix).flac" WAVE
INDEX 01 00:00:00
TRACK 10 AUDIO
TITLE "Bossa 31 (Chilling Out In Venice Mix, Buscemi)"
PERFORMER "Rosalia De Souza"
INDEX 00 06:37:25
FILE "10 - Bossa 31 (Chilling Out In Venice Mix, Buscemi).flac" WAVE
INDEX 01 00:00:00
TRACK 11 AUDIO
TITLE "Mais (Nu-Folk Mix, The Dining Rooms)"
PERFORMER "Rosalia De Souza"
INDEX 00 04:13:55
FILE "11 - Mais (Nu-Folk Mix, The Dining Rooms).flac" WAVE
INDEX 01 00:00:00
 
Лог проверки качества
AUDIOCHECKER v2.0 beta (build 457) - by Dester - opdester@freemail.hu
~~~~~~~~~~~~~~~~~~~~~~~~~~~~~~~~~~
-=== DO NOT EDIT THIS FILE! ===-
Path: ...\Rosalia de Souza-[2004]-Garota Diferente_flac
01 -=- 01 - Adriana (The Five Corners Quintet Remix).flac -=- CDDA (100%)
02 -=- 02 - Maria Moita (zero dB Reconstruction).flac -=- CDDA (100%)
03 -=- 03 - Fica Mal Com Deus (Truby Trio Treatment).flac -=- CDDA (100%)
04 -=- 04 - Samba Novo (Gianluca Petrella Remix).flac -=- CDDA (100%)
05 -=- 05 - Saudosismo (Povo Remix).flac -=- CDDA (100%)
06 -=- 06 - Bossa 31 (Gerardo Frisina Remix).flac -=- CDDA (100%)
07 -=- 07 - Fica Mal Com Deus (Stateless Remix).flac -=- CDDA (100%)
08 -=- 08 - Zona Sul (Raw Deal Remix).flac -=- CDDA (100%)
09 -=- 09 - Canto De Ossanha (Big Bang Remix).flac -=- CDDA (100%)
10 -=- 10 - Bossa 31 (Chilling Out In Venice Mix, Buscemi).flac -=- CDDA (54%)
11 -=- 11 - Mais (Nu-Folk Mix, The Dining Rooms).flac -=- CDDA (100%)
Summary 95,82% CDDA
98188468
Доп. информация: Отличие от этого релиза - правильно снятый рип. Спасибо kirkosh за возможность прикоснуться к прекрасной музыке.
 
Об альбоме (взято с what.cd)
A true treat: de Souza and producer Nicola Conte offer 11 different takes on the songs from de Souza's critically acclaimed debut album "Garota Moderna" ("Modern Girl"). Hers is the sultry voice that evokes memories of the best Brazilian vocalists of the 1960's and their total passion for their craft and de Souza joined their ranks with the stunning premiere volume of her discography. With this disc, we are presented with remixes of those songs that offer an entirely new dimension to this now classic album. The reconstructions are accomplished by the likes of Zero db, Stateless, Big Bang, Buscemi, Dining Rooms, Raw Deal, The Truby Trio, Povo and more. Each is well known in the chillout community of remixers and they have each performed an invaluable service to music lovers everywhere.
00:11
336
Нет комментариев. Ваш будет первым!