Вы используете незарегистрированную версию компонента "Вкладки"!

Поиск

(Bop/Swing) Al Grey - Centerpiece. Live At The Blue Note (with Harry "Sweets" Edison & Junio Mance) - 1995, APE (image+.cue), lossless

(Bop/Swing) Al Grey - Centerpiece. Live At The Blue Note (with Harry "Sweets" Edison & Junio Mance) - 1995, APE (image+.cue), lossless
Треклист:
Al Grey - Centerpiece. Live At The Blue Note
Жанр: Bop/Swing
Recorded live at the Blue Note, New York, New York from March 23-26, 1995.
Год выпуска диска: 1995
Производитель диска: U.S.A.
Label: Telarc
Аудио кодек: APE
Тип рипа: image+.cue
Битрейт аудио: lossless
Продолжительность: 59:13
Источник: нонэйм, автор: odoacer
Трэклист:
1. Diz Related
2. South Side
3. I Wish I Knew
4. Homage to Norman
5. Nascimento
6. S.W.B. Blues
7. Lester Leaps In
8. Bewitched, Bothered and Bewildered
9. Centerpiece
Музыканты:
Jerome Richardson - tenor saxophone, flute
Harry "Sweets" Edison - trumpet
Junior Mance - piano
Al Grey - trombone
Bobby Durham - drums
Ben Brown - bass
 
EAC log:
Exact Audio Copy V0.99 prebeta 4 from 23. January 2008
EAC extraction logfile from 22. April 2009, 4:07
Al Grey / Centerpiece: Live At The Blue Note
Used drive : TEAC DV-W518GM Adapter: 3 ID: 1
Read mode : Secure
Utilize accurate stream : Yes
Defeat audio cache : Yes
Make use of C2 pointers : No
Read offset correction : 6
Overread into Lead-In and Lead-Out : No
Fill up missing offset samples with silence : Yes
Delete leading and trailing silent blocks : No
Null samples used in CRC calculations : Yes
Used interface : Installed external ASPI interface
Used output format : Monkey's Audio Lossless Encoder
Selected bitrate : Normal Lossless Compression
Quality : High
Add ID3 tag : No
Command line compressor : C:\Program Files\Monkey's Audio\Monkey's Audio.exe
Additional command line options : -v
TOC of the extracted CD
Track | Start | Length | Start sector | End sector
---------------------------------------------------------
1 | 0:00.00 | 8:33.42 | 0 | 38516
2 | 8:33.42 | 9:53.25 | 38517 | 83016
3 | 18:26.67 | 5:31.48 | 83017 | 107889
4 | 23:58.40 | 5:30.40 | 107890 | 132679
5 | 29:29.05 | 6:06.00 | 132680 | 160129
6 | 35:35.05 | 3:42.22 | 160130 | 176801
7 | 39:17.27 | 6:24.00 | 176802 | 205601
8 | 45:41.27 | 5:47.03 | 205602 | 231629
9 | 51:28.30 | 7:48.47 | 231630 | 266776
Range status and errors
Selected range
Filename C:\Documents and Settings\User\My Documents\My Music\ОБРАЗЫ\Al Grey - Centerpiece Live At The Blue Note.wav
Peak level 99.9 %
Range quality 100.0 %
Test CRC A1D44A2F
Copy CRC A1D44A2F
Copy OK
No errors occurred
AccurateRip summary
Track 1 accurately ripped (confidence 1) [1D53FA01]
Track 2 accurately ripped (confidence 1) [6B9DBD7C]
Track 3 accurately ripped (confidence 1) [113DB8C9]
Track 4 accurately ripped (confidence 1) [871A70CC]
Track 5 accurately ripped (confidence 1) [E56A0210]
Track 6 accurately ripped (confidence 1) [3E85C765]
Track 7 accurately ripped (confidence 2) [B3723ED9]
Track 8 accurately ripped (confidence 2) [77CDF3D2]
Track 9 cannot be verified as accurate (confidence 2) [F16B0C09], AccurateRip returned [EA005D61]
8 track(s) accurately ripped
1 track(s) could not be verified as accurate
Some tracks could not be verified as accurate
End of status report
Any questions - support@pro-jazz.com.
Есть вопросы - support@pro-jazz.com
12:52
342
Нет комментариев. Ваш будет первым!