Поиск

(Bop, Vocal Jazz) Eddie Jefferson - Letter from Home - 1962, APE (image+.cue), lossless

Треклист:
Eddie Jefferson - Letter from Home
Жанр: Bop, Vocal Jazz
Страна-производитель диска: США
Год издания диска: 1987
Издатель (лейбл): Riverside/OJC
Номер по каталогу: OJCCD-307-2 (RLP-9411)
Аудиокодек: APE (*.ape)
Тип рипа: image+.cue
Битрейт аудио: lossless
Продолжительность: 37:06
Источник (релизер): Mazeppa (hqshare)
Наличие сканов в содержимом раздачи: да
Треклист:
01. Letter from Home (Mance-Keepnews) - 2:59
02. Take the "A" Train (Strayhorne-Mignone) - 3:08
03. Billie's Bounce (take 4) (Parker) - 2:44
04. Billie's Bounce (take 3) (Parker) - 2:46
05. I Cover the Waterfront (Back in Town) (Green-Heyman) - 3:06
06. Soft and Furry (Griffin-Jefferson) - 2:49
07. A Night in Tunisia (Gillespie-Paparelli) - 3:30
08. Things Are Getting Better (Adderley-Jefferson) - 3:08
09. Keep Walkin' (take 4) (Cobb-Jefferson) - 2:57
10. Keep Walkin' (take 1) (Cobb Jefferson) - 2:50
11. Body and Soul (I Feel So Good) (Green-Heyman-Sour-Eyton) - 3:09
12. Parker's Mood (Bless My Soul) (Parker) - 3:25
Состав:
Eddie Jefferson - vocals
Jimmy Cleveland - trombone
Clark Terry, Ernie Royal, Joe Newman - trumpet
Arthur Clarke - baritone saxophone
Johnny Griffin - tenor saxophone
James Moody - alto saxophone, flute
Barry Galbraith - guitar
Joe Zawinul, Wynton Kelly, Junior Mance - piano
Sam Jones - bass
Osie Johnson, Louis Hayes - drums
Recorded in New York City in December 1961, January and February, 1962.
 
Лог создания рипа
EAC extraction logfile from 23. March 2007, 14:17 for CD
Eddie Jefferson / Letter From Home
Used drive : LITE-ON CD-ROM LTN-527T Adapter: 1 ID: 1
Read mode : Secure with NO C2, accurate stream, disable cache
Read offset correction : 12
Overread into Lead-In and Lead-Out : Yes
Used output format : C:\Program Files\Monkey's Audio\MAC.exe (Monkey's Audio Lossless Encoder)
High Lossless Compression
Other options :
Fill up missing offset samples with silence : Yes
Delete leading and trailing silent blocks : No
Installed external ASPI interface
Range status and errors
Selected range
Filename F:\Win-Rar\Eddie Jefferson - Letters From Home (1961 OJC)[APE Full Scans]\Eddie Jefferson - Letter From Home.wav.wav
Peak level 80.7 %
Range quality 100.0 %
CRC 5A4FE6A4
Copy OK
No errors occured
End of status report
 
Содержание индексной карты (.CUE)
REM GENRE Jazz
REM DATE 1962
REM DISCID 9408B20C
REM COMMENT "ExactAudioCopy v0.95b4"
PERFORMER "Eddie Jefferson"
TITLE "Letter from Home"
FILE "Eddie Jefferson - Letters from Home.wav" WAVE
TRACK 01 AUDIO
TITLE "Letter from Home"
PERFORMER "Eddie Jefferson"
INDEX 01 00:00:00
TRACK 02 AUDIO
TITLE "Take the 'A' Train"
PERFORMER "Eddie Jefferson"
INDEX 00 02:59:45
INDEX 01 03:02:00
TRACK 03 AUDIO
TITLE "Billie's Bounce (take 4)"
PERFORMER "Eddie Jefferson"
INDEX 00 06:11:45
INDEX 01 06:14:30
TRACK 04 AUDIO
TITLE "Billie's Bounce (take 3)"
PERFORMER "Eddie Jefferson"
INDEX 00 08:59:55
INDEX 01 09:01:62
TRACK 05 AUDIO
TITLE "I Cover the Waterfront (Back in Town)"
PERFORMER "Eddie Jefferson"
INDEX 00 11:49:15
INDEX 01 11:49:62
TRACK 06 AUDIO
TITLE "Soft and Furry"
PERFORMER "Eddie Jefferson"
INDEX 00 14:56:25
INDEX 01 14:59:30
TRACK 07 AUDIO
TITLE "A Night in Tunisia"
PERFORMER "Eddie Jefferson"
INDEX 00 17:48:62
INDEX 01 17:51:07
TRACK 08 AUDIO
TITLE "Things Are Getting Better"
PERFORMER "Eddie Jefferson"
INDEX 00 21:21:32
INDEX 01 21:25:50
TRACK 09 AUDIO
TITLE "Keep Walkin' (take 4)"
PERFORMER "Eddie Jefferson"
INDEX 00 24:34:27
INDEX 01 24:37:00
TRACK 10 AUDIO
TITLE "Keep Walkin' (take 1)"
PERFORMER "Eddie Jefferson"
INDEX 00 27:34:07
INDEX 01 27:35:00
TRACK 11 AUDIO
TITLE "Body and Soul (I Feel So Good)"
PERFORMER "Eddie Jefferson"
INDEX 00 30:26:50
INDEX 01 30:28:00
TRACK 12 AUDIO
TITLE "Parker's Mood (Bless My Soul)"
PERFORMER "Eddie Jefferson"
INDEX 00 33:37:62
INDEX 01 33:39:57
 
Review by Scott Yanow
This CD (which augments the original LP program with two alternate takes) is a fine showcase for vocalese master Eddie Jefferson. Backed by either a tentet or a quintet that gives solo space to altoist James Moody and the tenor of Johnny Griffin, Jefferson sings his lyrics to such numbers as "Take the 'A' Train," "Billie's Bounce," "I Cover the Waterfront," "Parker's Mood" (the latter differs from the famous lines immortalized by King Pleasure), "A Night in Tunisia," and "Body and Soul," among others. Jefferson is in prime form and these boppish renditions as a whole form a near classic.
Приватный:
Нет (DHT включён)
Размер:
191.46 Мб (200,764,646 байт) » файлов: 9
Участники:
0 раздают, 0 качают (0 участников всего)
Внешние участники:
5 раздают, 1 качают (6 участников всего) [ Обновить ]
Есть вопросы - пишите личное сообщение пользователю M0p94ok.
08:33
25
Нет комментариев. Ваш будет первым!