Вы используете незарегистрированную версию компонента "Вкладки"!

Поиск

(Bop) Thelonious Monk, Charlie Parker - Round Midnight - 2000, FLAC (tracks+.cue), lossless

(Bop) Thelonious Monk, Charlie Parker - Round Midnight - 2000, FLAC (tracks+.cue), lossless
Треклист:
Thelonious Monk, Charlie Parker - Round Midnight - 2000 (2CD) {History}
Жанр: Bop
Дата записи: ниже
Дата выпуска: 2000
Производитель диска, номер, страна: 20.1981-HI, Trumpets Of Jericho Ltd.,
Distributed by: This is music GmbH, Hamburg
Тип: Compilation, Box Set
Аудио кодек: FLAC
Тип рипа: (tracks + .cue)
Битрейт аудио: lossless
Включает: Full artwork
Продолжительность:
Источник: коллекция Л Рендера
Риппер: Мой рип
Трэклист:
CD1
1. 'Round Midnight (Monk) ....................3:10
2. Thelonious (Monk) ........................3:01
3. Off Minor (Monk) .........................3:01
4. Well, You Needn't (Monk) ...................3:00
5. Ruby My Dear (Monk)......................3:09
6. Epistrophy (Monk - Clorke) ..................3:07
7. Evidence (Monk) .........................2:35
8. Mysterioso (Monk) ........................2:45
9. Who Knows (Monk) .......................2:41
10. Monk's Mood (Monk) ......................3:07
11. Suburban Eyes (Quebec) ....................3:01
12. Evonce (Suliman - Quebec) ..................3:04
13. Nice Work (Gershwin) ......................3:29
CD 2
1. Dizzy Atmosphere (Gillespie)..................2:45
2. Hot House (Domeron) ......................3:06
3. Billie's Bounce (Porker) .....................3:08
4. Ко Ко (Porker) ...........................2:53
5. Moose The Mooche (Porker) ..................3:03
6. Yardbird Suite (Porker)......................2:40
7. Ornithology (Benny - Harris) ..................3:00
8. Night in Tunisia (Gillespie - Paparelli).............3:01
9. Lover Man (Weill - Anderson) .................3:18
10. The Gypsy (Porker) ........................3:01
11. Be Bop (Parker) ..........................2:53
12. Bird's Nest (Parker)........................2:42
13. Cool Blues (Porker) ........................2:19
14. Reloxin' At Camarillo (Parker) .................3:01
15. Cheers (Parker) ..........................3:03
16. Carvin' The Bird (Parker) ....................2:43
17. Stupendous (Porker) .......................2:52
18. Donna Lee (Porker)........................2:33
 
Состав, даты, места записи
Dizzy Atmosphere
New York City. February 28. 1945
Dizzy Gillespie (tp), Charlie Parker (as), Clyde Hart (p), Remo Palmieri (g), Slam Stewart (b), Cozy Cole (d).
Hot House
New York City, May 11, 1945
Dizzy Gillespie (tp), Charlie Parker (as), Al Haig (p), Curley Russel (b), Sidney Catlett (d).
Ко Ко
New York City, November 26, 1945
Dizzy Gillespie (tp)(p), Charlie Parker (as), Argonne „Dense" Thornton alias Sadik Hakim (p), Curley Russel (b), Max Roach (d).
Billie's Bounce
New York City, November 26, 1945. same,
Miles Davis (tp) added and Dizzy Gillespie only piano, Sadik Hakim (p) out.
Moose The Mooche
Yardbird Suite
Ornithology
Night In Tunisia
Hollywood, March 28. 1946
Miles Davis (tp), Charlie Parker (as), Lucky Thompson (ts), Dodo Marmarosa (p), Arvin Garrison (g) except in „Moose The Mooche", Vic McMillan (b), Roy Porter (d).
Lover Man
The Gypsy
Be Bop
Hollywood. July 29. 1946
Howard McGhee (tp), Charlie Parker (as), Jimmy Bunn (p), Bob Kesterson (b), Roy Porter (d).
Bird's Nest
Cool Blues
Hollywood, February 19, 1947
Charlie Parker (as), Erroll Garner (p), George „Red" Callender (b), Harold „Doc" West (d).
Relaxin'At Camarillo
Cheers
Carvin' The Bird
Stupendous
Hollywood. February 26. 1947
Howard McGhee (tp), Charlie Parker (as), Wardell Gray (ts), Dodo Marmarosa (p), Barney Kessel (g), George „Red" Callender (b), Don Lamond (d).
Donna Lee
New York City. May 8, 1947
Miles Davis (tp), Charlie Parker (as), Bud Powell (p), Tommy Potter (b), Max Roach (d).
'Round Midnight
New York, November 21, 1947
Thelonious Monk (p), Sahib Shihab (as), George Taitt (tp), Robert Paige (b), Art Blakey (d).
Thelonious
New York, Ocober 15. 1947
Thelonious Monk (p), Idrees Sulieman (tp), Danny Quebec West (as), Billy Smith (ts), Gene Ramey (b), Art Blakey (d).
Off Minor
Well, You Needn't
Ruby My Dear
New York. October 24. 1947
Thelonious Monk (p), Gene Ramey (b), Art Blakey (d).
Epistrophy
Evidence
Mysterioso
New York. October 24. 1947
Thelonious Monk (p), Milt Jackson (vib), John Simmons (b), Shadow Wilson (d).
Who Knows
Monk's Mood
George Taitt (tp), Sahib Shihab (as), Thelonious Monk (p), Robert Paige (b), Art Blakey (d).
Suburban Eyes
Evonce
Idresse Suliman (tp), Danny Quebec West (as), Billy Smith (ts), Thelonious Monk (p), Gene Raraey (b), Art Blakey (d).
Nice Work
Thelonious Monk (p). Gene Ramey (b), Art Blakey (d).
October 15, November 21, 1947
 
Несколько слов на английском
Thelonius Monk
Thelonius Sphere Monk, the future co-founder of Modern Jazz, was born on the 10th October, 1917 in Rocky Mount, North Carolina. He moved with his family shortly afterwards to New York , where he learned to play piano from the age of 5. He already accompanied his mother, a gospel singer, on the church piano at the age of 11 .
He collected his first experience as a professional musician at so-called "House Rent Parties" in Harlem. After leaving school at the age of 16 he joined the four-piece backing band of a wandering preacher and faith healer, with whom he toured for a period of time throughout the States.
New York remained however his main working area. The pianist was considered to be an insider tip above all in "Minton's Playhouse", the meeting place of the innovative Bebop musicians in whose house-band Monk played for 3 years as of 1940. Jazz reformers such as Charlie Parker and Dizzy Gillespie were also regularly at the club.
Thelonius Monk, alongside Parker and Gillespie, also worked with Lucky Millinder and was on diverse studio recordings and performed at various concerts - amongst others with Hot Lips Page, Don Byas, Charlie Christian and Coleman Hawkins.
The pianist was often criticised in the course of his career - from music critics, the public and fellow musicians alike. He was reknowned in the scene for his peculiar ways: he had a passion for strange headwear, was often absolutely silent, and had apparently no interest in what was happening around him. He was therefore also known as "Mad Monk".
Monk is still regarded to this very day one of the most creative jazz pianists and composers. His songs such as "Round About Midnight", which Monk wrote at the age of 19, "Evidence" and "Misterioso" count today as classics of Modern Jazz.
He lost his "cabaret card" (the card allowed musicians to play in clubs in which alcohol was served) on the grounds of an alleged drug offense in 1951, and Monk withdrew until 1957 from the club scene. He celebrated his comeback in the "Five Spots" jazz club with his own quartet, to which John Coltrane belonged, among others.
"The High Priest of Bebop" spent the last years of his life after a stroke as a recluse with his wife Nellie. Thelonius Monk died on the 17th February, 1982 in Weehawken, New Jersey.
Charlie Parker
Charles Christopher Parker Jr. alias Charlie Parker - also known under his nickname "Bird" and "Yardbird" - was born on the 29th August, 1920 in Kansas City, in the State of Kansas. The jazz saxophonist, who was later to become world famous, grew up however in one of the capital cities of jazz in Kansas City, Missouri.
His mother Addie, who earned a living for the small family by doing cleaning jobs at night whilst her son was hanging around various jazz clubs in the city, gave her 13 year old son an alto saxophone. His greatest idol whilst practising was Lester Young and he could soon play all his solos note for note. Buster "Professor" Smith also counted amongst his masters.
"Bird" went to New York in 1939 where he met such musicians as Thelonius Monk, Kenny Clarke and Dizzy Gillespie in the scene-clubs and where a change of music direction was taking place: the modern style of Bebop was replacing Swing.
After leaving the Jay McShann Band in 1943 Parker eventually played with the cornet player Dizzy Gillespie in the Earl Hines Band - a stamping ground for up-and-coming young Bebop musicians. The extremely fruitful teamwork of the music revolutionaries Gillespie and Parker began in 1945 and many trend-setting songs were recorded in this period.
After a long stay in Los Angeles, where he set fire to a hotel room after an unsuccessful recording session and was committed to hospital, he formed a quintet in New York -amongst others with the young Miles Davis on trumpet and Max Roach on drums. This formation set new standards in jazz music.
In spite of countless legendary sessions Parker kept causing unpleasant scenes, set off by his undisciplined alcohol and drug consumption and was even banned for a period of time from the "Birdland" club, the club which had earlier been opened in his honour.
The jazz legend died on the 12th March, 1955 in the hotel room of a girlfriend in New York.
His excessive lifestyle was marked by his greed for sex (he had four wives and five children), drugs and alcohol. Parker is regarded, alongside other jazz greats such as Louis Armstrong, as one of the most brilliant musicians, and has become one of the focal points in the history of jazz music.
 
Cue
 
CD1
REM GENRE Jazz
REM DATE 2000
REM DISCID 9F09130D
REM COMMENT "ExactAudioCopy v0.99pb4"
PERFORMER "Thelonious Monk"
TITLE "Round Midnight"
FILE "01 - 'Round Midnight (Monk).wav" WAVE
TRACK 01 AUDIO
TITLE "'Round Midnight (Monk)"
PERFORMER "Thelonious Monk"
INDEX 01 00:00:00
TRACK 02 AUDIO
TITLE "Thelonious (Monk)"
PERFORMER "Thelonious Monk"
INDEX 00 03:08:56
FILE "02 - Thelonious (Monk).wav" WAVE
INDEX 01 00:00:00
TRACK 03 AUDIO
TITLE "Off Minor (Monk)"
PERFORMER "Thelonious Monk"
INDEX 00 02:59:55
FILE "03 - Off Minor (Monk).wav" WAVE
INDEX 01 00:00:00
TRACK 04 AUDIO
TITLE "Well, You Needn't (Monk)"
PERFORMER "Thelonious Monk"
INDEX 00 02:59:44
FILE "04 - Well, You Needn't (Monk).wav" WAVE
INDEX 01 00:00:00
TRACK 05 AUDIO
TITLE "Ruby, My Dear (Monk)"
PERFORMER "Thelonious Monk"
INDEX 00 02:58:32
FILE "05 - Ruby, My Dear (Monk).wav" WAVE
INDEX 01 00:00:00
TRACK 06 AUDIO
TITLE "Epsitrophy (Monk - Clarke)"
PERFORMER "Thelonious Monk"
INDEX 00 03:07:23
FILE "06 - Epsitrophy (Monk - Clarke).wav" WAVE
INDEX 01 00:00:00
TRACK 07 AUDIO
TITLE "Evidence (Monk)"
PERFORMER "Thelonious Monk"
INDEX 00 03:05:37
FILE "07 - Evidence (Monk).wav" WAVE
INDEX 01 00:00:00
TRACK 08 AUDIO
TITLE "Misterioso (Monk)"
PERFORMER "Thelonious Monk"
INDEX 00 02:33:48
FILE "08 - Misterioso (Monk).wav" WAVE
INDEX 01 00:00:00
TRACK 09 AUDIO
TITLE "Who Knows? (Monk)"
PERFORMER "Thelonious Monk"
INDEX 00 02:44:00
FILE "09 - Who Knows (Monk).wav" WAVE
INDEX 01 00:00:00
TRACK 10 AUDIO
TITLE "Monk's Mood (Monk)"
PERFORMER "Thelonious Monk"
INDEX 00 02:39:53
FILE "10 - Monk's Mood (Monk).wav" WAVE
INDEX 01 00:00:00
TRACK 11 AUDIO
TITLE "Suburban Eyes (Quebec)"
PERFORMER "Thelonious Monk"
INDEX 00 03:05:61
FILE "11 - Suburban Eyes (Quebec).wav" WAVE
INDEX 01 00:00:00
TRACK 12 AUDIO
TITLE "Evonce (Suliman - Quebec)"
PERFORMER "Thelonious Monk"
INDEX 00 02:59:46
FILE "12 - Evonce (Suliman - Quebec).wav" WAVE
INDEX 01 00:00:00
TRACK 13 AUDIO
TITLE "Nice Work If You Can Get It (Gershwin)"
PERFORMER "Thelonious Monk"
INDEX 00 03:02:38
FILE "13 - Nice Work If You Can Get It (Gershwin).wav" WAVE
INDEX 01 00:00:00
 
CD2
REM GENRE Jazz
REM DATE 2000
REM DISCID FD0C4712
REM COMMENT "ExactAudioCopy v0.99pb4"
PERFORMER "Charlie Parker"
TITLE "Round Midnight"
FILE "01 - Dizzy Atmosphere (Gillespie).wav" WAVE
TRACK 01 AUDIO
TITLE "Dizzy Atmosphere (Gillespie)"
PERFORMER "Charlie Parker"
INDEX 01 00:00:00
TRACK 02 AUDIO
TITLE "Hot House (Dameron)"
PERFORMER "Charlie Parker"
INDEX 00 02:45:05
FILE "02 - Hot House (Dameron).wav" WAVE
INDEX 01 00:00:00
TRACK 03 AUDIO
TITLE "Billie's Bounce (Parker)"
PERFORMER "Charlie Parker"
INDEX 00 03:05:33
FILE "03 - Billie's Bounce (Parker).wav" WAVE
INDEX 01 00:00:00
TRACK 04 AUDIO
TITLE "Ko-Ko (Parker)"
PERFORMER "Charlie Parker"
INDEX 00 03:07:72
FILE "04 - Ko-Ko (Parker).wav" WAVE
INDEX 01 00:00:00
TRACK 05 AUDIO
TITLE "Moose the Mooche (Parker)"
PERFORMER "Charlie Parker"
INDEX 00 02:52:24
FILE "05 - Moose the Mooche (Parker).wav" WAVE
INDEX 01 00:00:00
TRACK 06 AUDIO
TITLE "Yardbird Suite (Parker)"
PERFORMER "Charlie Parker"
INDEX 00 03:02:53
FILE "06 - Yardbird Suite (Parker).wav" WAVE
INDEX 01 00:00:00
TRACK 07 AUDIO
TITLE "Ornithology (Benny - Harris)"
PERFORMER "Charlie Parker"
INDEX 00 02:39:30
FILE "07 - Ornithology (Benny - Harris).wav" WAVE
INDEX 01 00:00:00
TRACK 08 AUDIO
TITLE "Night in Tunisia (Gillespie - Paparelli)"
PERFORMER "Charlie Parker"
INDEX 00 02:59:11
FILE "08 - Night in Tunisia (Gillespie - Paparelli).wav" WAVE
INDEX 01 00:00:00
TRACK 09 AUDIO
TITLE "Lover Man (Weill - Anderson)"
PERFORMER "Charlie Parker"
INDEX 00 03:06:05
FILE "09 - Lover Man (Weill - Anderson).wav" WAVE
INDEX 01 00:00:00
TRACK 10 AUDIO
TITLE "Gypsy (Parker)"
PERFORMER "Charlie Parker"
INDEX 00 03:17:71
FILE "10 - Gypsy (Parker).wav" WAVE
INDEX 01 00:00:00
TRACK 11 AUDIO
TITLE "Bebop (Parker)"
PERFORMER "Charlie Parker"
INDEX 00 03:00:61
FILE "11 - Bebop (Parker).wav" WAVE
INDEX 01 00:00:00
TRACK 12 AUDIO
TITLE "Bird's Nest (Parker)"
PERFORMER "Charlie Parker"
INDEX 00 02:51:65
FILE "12 - Bird's Nest (Parker).wav" WAVE
INDEX 01 00:00:00
TRACK 13 AUDIO
TITLE "Cool Blues (Parker)"
PERFORMER "Charlie Parker"
INDEX 00 02:41:14
FILE "13 - Cool Blues (Parker).wav" WAVE
INDEX 01 00:00:00
TRACK 14 AUDIO
TITLE "Relaxin' at Camarillo (Parker)"
PERFORMER "Charlie Parker"
INDEX 00 02:18:27
FILE "14 - Relaxin' at Camarillo (Parker).wav" WAVE
INDEX 01 00:00:00
TRACK 15 AUDIO
TITLE "Cheers (Parker)"
PERFORMER "Charlie Parker"
INDEX 00 03:00:28
FILE "15 - Cheers (Parker).wav" WAVE
INDEX 01 00:00:00
TRACK 16 AUDIO
TITLE "Carvin' the Bird (Parker)"
PERFORMER "Charlie Parker"
INDEX 00 03:02:22
FILE "16 - Carvin' the Bird (Parker).wav" WAVE
INDEX 01 00:00:00
TRACK 17 AUDIO
TITLE "Stupendous (Parker)"
PERFORMER "Charlie Parker"
INDEX 00 02:42:35
FILE "17 - Stupendous (Parker).wav" WAVE
INDEX 01 00:00:00
TRACK 18 AUDIO
TITLE "Donna Lee (Parker)"
PERFORMER "Charlie Parker"
INDEX 00 02:51:32
FILE "18 - Donna Lee (Parker).wav" WAVE
INDEX 01 00:00:00
 
EAC log
 
CD1
Exact Audio Copy V0.99 prebeta 4 from 23. January 2008
EAC extraction logfile from 4. June 2010, 14:46
Thelonious Monk / Round Midnight
Used drive : HL-DT-STDVD-RAM GH22NP20 Adapter: 0 ID: 0
Read mode : Secure
Utilize accurate stream : Yes
Defeat audio cache : Yes
Make use of C2 pointers : No
Read offset correction : 102
Overread into Lead-In and Lead-Out : No
Fill up missing offset samples with silence : Yes
Delete leading and trailing silent blocks : No
Null samples used in CRC calculations : Yes
Used interface : Installed external ASPI interface
Gap handling : Appended to previous track
Used output format : User Defined Encoder
Selected bitrate : 320 kBit/s
Quality : High
Add ID3 tag : No
Command line compressor : C:\Program Files\Exact Audio Copy\Flac\flac.exe
Additional command line options : -V -8 -T "artist=%a" -T "title=%t" -T "album=%g" -T "date=%y" -T "tracknumber=%n" -T "genre=%m" %s
TOC of the extracted CD
Track | Start | Length | Start sector | End sector
---------------------------------------------------------
1 | 0:00.00 | 3:10.26 | 0 | 14275
2 | 3:10.26 | 3:01.25 | 14276 | 27875
3 | 6:11.51 | 3:01.14 | 27876 | 41464
4 | 9:12.65 | 3:00.02 | 41465 | 54966
5 | 12:12.67 | 3:08.68 | 54967 | 69134
6 | 15:21.60 | 3:07.07 | 69135 | 83166
7 | 18:28.67 | 2:35.18 | 83167 | 94809
8 | 21:04.10 | 2:45.45 | 94810 | 107229
9 | 23:49.55 | 2:41.23 | 107230 | 119327
10 | 26:31.03 | 3:07.31 | 119328 | 133383
11 | 29:38.34 | 3:01.16 | 133384 | 146974
12 | 32:39.50 | 3:04.08 | 146975 | 160782
13 | 35:43.58 | 2:59.58 | 160783 | 174265
Track 1
Filename D:\music\Musicgate's rips\Thelonious Monk, Charlie Parker - Round Midnight - 2000 (2CD) {History}\CD1\01 - 'Round Midnight (Monk).wav
Pre-gap length 0:00:02.00
Peak level 60.3 %
Track quality 100.0 %
Test CRC CE0B4949
Copy CRC CE0B4949
Accurately ripped (confidence 3) [644E4B43]
Copy OK
Track 2
Filename D:\music\Musicgate's rips\Thelonious Monk, Charlie Parker - Round Midnight - 2000 (2CD) {History}\CD1\02 - Thelonious (Monk).wav
Pre-gap length 0:00:01.60
Peak level 67.1 %
Track quality 100.0 %
Test CRC A547C17A
Copy CRC A547C17A
Accurately ripped (confidence 3) [574CCCE9]
Copy OK
Track 3
Filename D:\music\Musicgate's rips\Thelonious Monk, Charlie Parker - Round Midnight - 2000 (2CD) {History}\CD1\03 - Off Minor (Monk).wav
Pre-gap length 0:00:01.60
Peak level 70.1 %
Track quality 100.0 %
Test CRC 1913FA55
Copy CRC 1913FA55
Accurately ripped (confidence 3) [5827256E]
Copy OK
Track 4
Filename D:\music\Musicgate's rips\Thelonious Monk, Charlie Parker - Round Midnight - 2000 (2CD) {History}\CD1\04 - Well, You Needn't (Monk).wav
Pre-gap length 0:00:01.60
Peak level 67.2 %
Track quality 100.0 %
Test CRC 41A92009
Copy CRC 41A92009
Accurately ripped (confidence 3) [260DBD88]
Copy OK
Track 5
Filename D:\music\Musicgate's rips\Thelonious Monk, Charlie Parker - Round Midnight - 2000 (2CD) {History}\CD1\05 - Ruby, My Dear (Monk).wav
Pre-gap length 0:00:01.60
Peak level 65.0 %
Track quality 99.9 %
Test CRC 2A540866
Copy CRC 2A540866
Accurately ripped (confidence 3) [96B9238D]
Copy OK
Track 6
Filename D:\music\Musicgate's rips\Thelonious Monk, Charlie Parker - Round Midnight - 2000 (2CD) {History}\CD1\06 - Epsitrophy (Monk - Clarke).wav
Pre-gap length 0:00:01.60
Peak level 64.0 %
Track quality 100.0 %
Test CRC 89DC8103
Copy CRC 89DC8103
Accurately ripped (confidence 3) [5634F610]
Copy OK
Track 7
Filename D:\music\Musicgate's rips\Thelonious Monk, Charlie Parker - Round Midnight - 2000 (2CD) {History}\CD1\07 - Evidence (Monk).wav
Pre-gap length 0:00:01.60
Peak level 59.8 %
Track quality 100.0 %
Test CRC B7DE2022
Copy CRC B7DE2022
Accurately ripped (confidence 3) [668BE8A6]
Copy OK
Track 8
Filename D:\music\Musicgate's rips\Thelonious Monk, Charlie Parker - Round Midnight - 2000 (2CD) {History}\CD1\08 - Misterioso (Monk).wav
Pre-gap length 0:00:01.60
Peak level 68.2 %
Track quality 100.0 %
Test CRC 9BB80BE3
Copy CRC 9BB80BE3
Accurately ripped (confidence 3) [48BFCE89]
Copy OK
Track 9
Filename D:\music\Musicgate's rips\Thelonious Monk, Charlie Parker - Round Midnight - 2000 (2CD) {History}\CD1\09 - Who Knows (Monk).wav
Pre-gap length 0:00:01.60
Peak level 92.2 %
Track quality 100.0 %
Test CRC 30A2AE1B
Copy CRC 30A2AE1B
Accurately ripped (confidence 3) [180959B5]
Copy OK
Track 10
Filename D:\music\Musicgate's rips\Thelonious Monk, Charlie Parker - Round Midnight - 2000 (2CD) {History}\CD1\10 - Monk's Mood (Monk).wav
Pre-gap length 0:00:01.60
Peak level 74.1 %
Track quality 100.0 %
Test CRC 1C6FF813
Copy CRC 1C6FF813
Accurately ripped (confidence 3) [D34A1299]
Copy OK
Track 11
Filename D:\music\Musicgate's rips\Thelonious Monk, Charlie Parker - Round Midnight - 2000 (2CD) {History}\CD1\11 - Suburban Eyes (Quebec).wav
Pre-gap length 0:00:01.60
Peak level 76.3 %
Track quality 100.0 %
Test CRC 1F54FBD2
Copy CRC 1F54FBD2
Accurately ripped (confidence 3) [0DF298D6]
Copy OK
Track 12
Filename D:\music\Musicgate's rips\Thelonious Monk, Charlie Parker - Round Midnight - 2000 (2CD) {History}\CD1\12 - Evonce (Suliman - Quebec).wav
Pre-gap length 0:00:01.60
Peak level 76.7 %
Track quality 100.0 %
Test CRC 46A6B325
Copy CRC 46A6B325
Accurately ripped (confidence 3) [12569F8B]
Copy OK
Track 13
Filename D:\music\Musicgate's rips\Thelonious Monk, Charlie Parker - Round Midnight - 2000 (2CD) {History}\CD1\13 - Nice Work If You Can Get It (Gershwin).wav
Pre-gap length 0:00:01.60
Peak level 82.3 %
Track quality 100.0 %
Test CRC C73950B1
Copy CRC C73950B1
Accurately ripped (confidence 3) [1EBC37EE]
Copy OK
All tracks accurately ripped
No errors occurred
End of status report
 
CD2
Exact Audio Copy V0.99 prebeta 4 from 23. January 2008
EAC extraction logfile from 12. June 2010, 21:19
Charlie Parker / Round Midnight
Used drive : HL-DT-STDVD-RAM GH22NP20 Adapter: 0 ID: 0
Read mode : Secure
Utilize accurate stream : Yes
Defeat audio cache : Yes
Make use of C2 pointers : No
Read offset correction : 102
Overread into Lead-In and Lead-Out : No
Fill up missing offset samples with silence : Yes
Delete leading and trailing silent blocks : No
Null samples used in CRC calculations : Yes
Used interface : Installed external ASPI interface
Gap handling : Appended to previous track
Used output format : User Defined Encoder
Selected bitrate : 320 kBit/s
Quality : High
Add ID3 tag : No
Command line compressor : C:\Program Files\Exact Audio Copy\Flac\flac.exe
Additional command line options : -V -8 -T "artist=%a" -T "title=%t" -T "album=%g" -T "date=%y" -T "tracknumber=%n" -T "genre=%m" %s
TOC of the extracted CD
Track | Start | Length | Start sector | End sector
---------------------------------------------------------
1 | 0:00.00 | 2:46.50 | 0 | 12499
2 | 2:46.50 | 3:07.03 | 12500 | 26527
3 | 5:53.53 | 3:09.42 | 26528 | 40744
4 | 9:03.20 | 2:53.69 | 40745 | 53788
5 | 11:57.14 | 3:04.23 | 53789 | 67611
6 | 15:01.37 | 2:41.00 | 67612 | 79686
7 | 17:42.37 | 3:00.56 | 79687 | 93242
8 | 20:43.18 | 3:07.50 | 93243 | 107317
9 | 23:50.68 | 3:19.41 | 107318 | 122283
10 | 27:10.34 | 3:02.31 | 122284 | 135964
11 | 30:12.65 | 2:53.35 | 135965 | 148974
12 | 33:06.25 | 2:42.59 | 148975 | 161183
13 | 35:49.09 | 2:19.72 | 161184 | 171680
14 | 38:09.06 | 3:01.73 | 171681 | 185328
15 | 41:11.04 | 3:03.67 | 185329 | 199120
16 | 44:14.71 | 2:44.05 | 199121 | 211425
17 | 46:59.01 | 2:53.02 | 211426 | 224402
18 | 49:52.03 | 2:31.54 | 224403 | 235781
Track 1
Filename D:\music\Musicgate's rips\Thelonious Monk, Charlie Parker - Round Midnight - 2000 (2CD) {History}\CD2\01 - Dizzy Atmosphere (Gillespie).wav
Pre-gap length 0:00:02.00
Peak level 50.3 %
Track quality 100.0 %
Test CRC 30230049
Copy CRC 30230049
Accurately ripped (confidence 3) [47C47FAE]
Copy OK
Track 2
Filename D:\music\Musicgate's rips\Thelonious Monk, Charlie Parker - Round Midnight - 2000 (2CD) {History}\CD2\02 - Hot House (Dameron).wav
Pre-gap length 0:00:01.60
Peak level 56.5 %
Track quality 100.0 %
Test CRC 09D8F553
Copy CRC 09D8F553
Accurately ripped (confidence 3) [C94E9060]
Copy OK
Track 3
Filename D:\music\Musicgate's rips\Thelonious Monk, Charlie Parker - Round Midnight - 2000 (2CD) {History}\CD2\03 - Billie's Bounce (Parker).wav
Pre-gap length 0:00:01.60
Peak level 53.6 %
Track quality 100.0 %
Test CRC E70EC651
Copy CRC E70EC651
Accurately ripped (confidence 3) [F521C713]
Copy OK
Track 4
Filename D:\music\Musicgate's rips\Thelonious Monk, Charlie Parker - Round Midnight - 2000 (2CD) {History}\CD2\04 - Ko-Ko (Parker).wav
Pre-gap length 0:00:01.60
Peak level 67.3 %
Track quality 100.0 %
Test CRC 9D824F16
Copy CRC 9D824F16
Accurately ripped (confidence 3) [9E768389]
Copy OK
Track 5
Filename D:\music\Musicgate's rips\Thelonious Monk, Charlie Parker - Round Midnight - 2000 (2CD) {History}\CD2\05 - Moose the Mooche (Parker).wav
Pre-gap length 0:00:01.60
Peak level 56.6 %
Track quality 99.9 %
Test CRC 7D035D19
Copy CRC 7D035D19
Accurately ripped (confidence 3) [6C12A640]
Copy OK
Track 6
Filename D:\music\Musicgate's rips\Thelonious Monk, Charlie Parker - Round Midnight - 2000 (2CD) {History}\CD2\06 - Yardbird Suite (Parker).wav
Pre-gap length 0:00:01.60
Peak level 51.4 %
Track quality 100.0 %
Test CRC D4B33998
Copy CRC D4B33998
Accurately ripped (confidence 3) [7115AAE5]
Copy OK
Track 7
Filename D:\music\Musicgate's rips\Thelonious Monk, Charlie Parker - Round Midnight - 2000 (2CD) {History}\CD2\07 - Ornithology (Benny - Harris).wav
Pre-gap length 0:00:01.60
Peak level 59.4 %
Track quality 100.0 %
Test CRC 73DD3E98
Copy CRC 73DD3E98
Accurately ripped (confidence 3) [EF5A505E]
Copy OK
Track 8
Filename D:\music\Musicgate's rips\Thelonious Monk, Charlie Parker - Round Midnight - 2000 (2CD) {History}\CD2\08 - Night in Tunisia (Gillespie - Paparelli).wav
Pre-gap length 0:00:01.60
Peak level 64.1 %
Track quality 100.0 %
Test CRC 33691ADD
Copy CRC 33691ADD
Accurately ripped (confidence 3) [40321275]
Copy OK
Track 9
Filename D:\music\Musicgate's rips\Thelonious Monk, Charlie Parker - Round Midnight - 2000 (2CD) {History}\CD2\09 - Lover Man (Weill - Anderson).wav
Pre-gap length 0:00:01.60
Peak level 53.3 %
Track quality 99.9 %
Test CRC EBB0411C
Copy CRC EBB0411C
Accurately ripped (confidence 3) [D75FC12D]
Copy OK
Track 10
Filename D:\music\Musicgate's rips\Thelonious Monk, Charlie Parker - Round Midnight - 2000 (2CD) {History}\CD2\10 - Gypsy (Parker).wav
Pre-gap length 0:00:01.60
Peak level 50.6 %
Track quality 100.0 %
Test CRC E419CD8F
Copy CRC E419CD8F
Accurately ripped (confidence 3) [39E60F96]
Copy OK
Track 11
Filename D:\music\Musicgate's rips\Thelonious Monk, Charlie Parker - Round Midnight - 2000 (2CD) {History}\CD2\11 - Bebop (Parker).wav
Pre-gap length 0:00:01.60
Peak level 60.6 %
Track quality 100.0 %
Test CRC 18A91131
Copy CRC 18A91131
Accurately ripped (confidence 3) [B89DABE3]
Copy OK
Track 12
Filename D:\music\Musicgate's rips\Thelonious Monk, Charlie Parker - Round Midnight - 2000 (2CD) {History}\CD2\12 - Bird's Nest (Parker).wav
Pre-gap length 0:00:01.60
Peak level 58.2 %
Track quality 100.0 %
Test CRC 3AEA359A
Copy CRC 3AEA359A
Accurately ripped (confidence 3) [2C5EEF44]
Copy OK
Track 13
Filename D:\music\Musicgate's rips\Thelonious Monk, Charlie Parker - Round Midnight - 2000 (2CD) {History}\CD2\13 - Cool Blues (Parker).wav
Pre-gap length 0:00:01.60
Peak level 55.7 %
Track quality 100.0 %
Test CRC 06AEE849
Copy CRC 06AEE849
Accurately ripped (confidence 3) [CE658B82]
Copy OK
Track 14
Filename D:\music\Musicgate's rips\Thelonious Monk, Charlie Parker - Round Midnight - 2000 (2CD) {History}\CD2\14 - Relaxin' at Camarillo (Parker).wav
Pre-gap length 0:00:01.60
Peak level 54.5 %
Track quality 99.9 %
Test CRC 50A9B0A1
Copy CRC 50A9B0A1
Accurately ripped (confidence 3) [6F42C732]
Copy OK
Track 15
Filename D:\music\Musicgate's rips\Thelonious Monk, Charlie Parker - Round Midnight - 2000 (2CD) {History}\CD2\15 - Cheers (Parker).wav
Pre-gap length 0:00:01.60
Peak level 52.6 %
Track quality 100.0 %
Test CRC F5AFE48D
Copy CRC F5AFE48D
Accurately ripped (confidence 3) [891A06AD]
Copy OK
Track 16
Filename D:\music\Musicgate's rips\Thelonious Monk, Charlie Parker - Round Midnight - 2000 (2CD) {History}\CD2\16 - Carvin' the Bird (Parker).wav
Pre-gap length 0:00:01.60
Peak level 60.0 %
Track quality 100.0 %
Test CRC 5726EDFF
Copy CRC 5726EDFF
Accurately ripped (confidence 3) [D3A7A4BA]
Copy OK
Track 17
Filename D:\music\Musicgate's rips\Thelonious Monk, Charlie Parker - Round Midnight - 2000 (2CD) {History}\CD2\17 - Stupendous (Parker).wav
Pre-gap length 0:00:01.60
Peak level 56.4 %
Track quality 99.9 %
Test CRC A36B726B
Copy CRC A36B726B
Accurately ripped (confidence 3) [04451410]
Copy OK
Track 18
Filename D:\music\Musicgate's rips\Thelonious Monk, Charlie Parker - Round Midnight - 2000 (2CD) {History}\CD2\18 - Donna Lee (Parker).wav
Pre-gap length 0:00:01.60
Peak level 55.0 %
Track quality 100.0 %
Test CRC 423ACD8E
Copy CRC 423ACD8E
Accurately ripped (confidence 3) [21DF44F2]
Copy OK
All tracks accurately ripped
No errors occurred
End of status report
 
Tau analyzer screenshoot

Я не сидирую все свои раздачи подолгу, только новые (до 3х первых сидов)
За своими раздачами не слежу, и старые топики не читаю - если нет сидов или раздача находится в архиве, пришлите письмо, и я вернусь
Предлагаю скачавшим максимально долго оставаться на раздаче - весь рейтинг будет ваш.
Заботьтесь о своем рейтинге - конвертируйте в мп3 и выкладывайте в соответствующем разделе
Any questions - support@pro-jazz.com.
Есть вопросы - support@pro-jazz.com
14:58
205
Нет комментариев. Ваш будет первым!