Поиск

(Bop, Swing, Trombone) Bennie Green (w. Sonny Clark, Jimmy Forrest, George Tucker, Alfred Dreares etc) - Bennie Green - 1980, FLAC (image+.cue) lossless

(Bop, Swing, Trombone) Bennie Green (w. Sonny Clark, Jimmy Forrest, George Tucker, Alfred Dreares etc) - Bennie Green - 1980, FLAC (image+.cue) lossless
Треклист:
Bennie Green - Bennie Green
Жанр: Bop, Swing, Trombone
Страна-производитель диска: USA
Год издания диска: 1980
Издатель (лейбл): Bainbridge Records
Номер по каталогу: BCD1046
Аудио кодек: FLAC (*.flac)
Тип рипа: image+.cue
Битрейт аудио: lossless
Продолжительность: 00:33:57
Источник (релизер): PCWhizzkid
Наличие сканов в содержимом раздачи: да
Треклист:
1. Sometimes I'm Happy 5:21
2. It's Time 7:02
3. Solitude 5:47
4. Sonny's Crip 6:01
5. Cool Struttin' 5:23
6. And That I Am So in Love 3:48
Personnel:
Bennie Green (trombone);
Sonny Clark (piano);
Jimmy Forrest (tenor saxophone);
George Tucker (bass);
Alfred Dreares (drums);
Joseph Gorgas (bongos).
Includes liner notes by Leonard Feather.
Recording information: Six tracks recorded in New York City, NY, September 27th, 1960.
 
Лог создания рипа (EAC Log)
Exact Audio Copy V1.0 beta 1 from 15. November 2010
EAC extraction logfile from 27. April 2011, 11:24
Bennie Green / Bennie Green
Used drive : HL-DT-STDVDRAM GH22NS40 Adapter: 5 ID: 0
Read mode : Secure
Utilize accurate stream : Yes
Defeat audio cache : Yes
Make use of C2 pointers : No
Read offset correction : 667
Overread into Lead-In and Lead-Out : No
Fill up missing offset samples with silence : Yes
Delete leading and trailing silent blocks : No
Null samples used in CRC calculations : Yes
Used interface : Native Win32 interface for Win NT & 2000
Used output format : User Defined Encoder
Selected bitrate : 768 kBit/s
Quality : High
Add ID3 tag : No
Command line compressor : C:\Program Files (x86)\Exact Audio Copy\FLAC\FLAC.EXE
Additional command line options : -6 -V -T "ARTIST=%a" -T "TITLE=%t" -T "ALBUM=%g" -T "DATE=%y" -T "TRACKNUMBER=%n" -T "GENRE=%m" -T "COMMENT=%e" %j--picture="%i"%j %s -o %d
TOC of the extracted CD
Track | Start | Length | Start sector | End sector
---------------------------------------------------------
1 | 0:00.00 | 5:24.53 | 0 | 24352
2 | 5:24.53 | 7:04.65 | 24353 | 56217
3 | 12:29.43 | 5:58.27 | 56218 | 83094
4 | 18:27.70 | 6:07.05 | 83095 | 110624
5 | 24:35.00 | 5:29.05 | 110625 | 135304
6 | 30:04.05 | 3:53.68 | 135305 | 152847
Range status and errors
Selected range
Filename T:\Bennie Green - Bennie Green.wav
Peak level 99.8 %
Extraction speed 0.1 X
Range quality 100.0 %
Test CRC E04B7A21
Copy CRC E04B7A21
Copy OK
No errors occurred
AccurateRip summary
Track 1 accurately ripped (confidence 1) [12A59C65]
Track 2 accurately ripped (confidence 1) [E15E5B1D]
Track 3 accurately ripped (confidence 1) [5A4FEC7C]
Track 4 accurately ripped (confidence 1) [DC4D2540]
Track 5 accurately ripped (confidence 1) [298F888A]
Track 6 accurately ripped (confidence 1) [6F9225A4]
All tracks accurately ripped
End of status report
==== Log checksum 91474349485442D0CBCEF6DE7CBEE5D0546423B3934F1F7A6AA98E49A5940774 ====
 
 
Содержание индексной карты (.CUE)
REM GENRE Jazz
REM DATE 1980
REM DISCID 4707F506
REM COMMENT "ExactAudioCopy v1.0b1"
PERFORMER "Bennie Green"
TITLE "Bennie Green"
FILE "Bennie Green - Bennie Green.flac" WAVE
  TRACK 01 AUDIO
    TITLE "Sometimes I'm Happy"
    PERFORMER "Bennie Green"
    INDEX 01 00:00:00
  TRACK 02 AUDIO
    TITLE "It's Time"
    PERFORMER "Bennie Green"
    INDEX 00 05:22:50
    INDEX 01 05:24:53
  TRACK 03 AUDIO
    TITLE "Solitude"
    PERFORMER "Bennie Green"
    INDEX 00 12:27:35
    INDEX 01 12:29:43
  TRACK 04 AUDIO
    TITLE "Sonny's Crip"
    PERFORMER "Bennie Green"
    INDEX 00 18:17:40
    INDEX 01 18:27:70
  TRACK 05 AUDIO
    TITLE "Cool Struttin'"
    PERFORMER "Bennie Green"
    INDEX 00 24:32:53
    INDEX 01 24:35:00
  TRACK 06 AUDIO
    TITLE "And That I Am  So In Love"
    PERFORMER "Bennie Green"
    INDEX 00 30:01:60
    INDEX 01 30:04:05
 
 
Об исполнителе (группе)
Bennie Green was one of the few trombonists of the 1950s who played in a style not influenced by J.J. Johnson (Bill Harris was another). His witty sound and full tone looked backwards to the swing era yet was open to the influence of R&B. After playing locally in Chicago, he was with the Earl Hines Orchestra during 1942-1948 (except for two years in the military). Green gained some fame for his work with Charlie Ventura (1948-1950) before joining Earl Hines' small group (1951-1953). He then led his own group throughout the 1950s and '60s, using such sidemen as Cliff Smalls, Charlie Rouse, Eric Dixon, Paul Chambers, Louis Hayes, Sonny Clark, Gildo Mahones, and Jimmy Forrest. Green recorded regularly as a leader for Prestige, Decca, Blue Note, Vee-Jay, Time, Bethlehem, and Jazzland during 1951-1961, although only one further session (a matchup with Sonny Stitt on Cadet in 1964) took place. Bennie Green was with Duke Ellington for a few months in 1968-1969 and then moved to Las Vegas, where he spent his last years working in hotel bands, although he did emerge to play quite well at the 1972 Newport Jazz Festival and in New York jam sessions.~ Scott Yanow
 
 
Об альбоме (сборнике)
Trombonist Bennie Green and tenor saxophonist Jimmy Forrest make a potent team on this fine middle-of-the-road 1960 set. Performing three selections by their pianist Sonny Clark, an obscurity, "Solitude," and "Sometimes I'm Happy," Green and ... Full DescriptionForrest both display extroverted emotions and plenty of swinging ideas. Also heard from are bassist George Tucker, drummer Al Dreares and Joseph Gorgas on bongos. This Time set was last reissued by Bainbridge, although it was put out on CD in Japan. ~ Scott Yanow
По всем вопросам пишите личное сообщение пользователю M0p94ok.
04:12
360
Нет комментариев. Ваш будет первым!