Поиск

(Bop, Swing) The Dick Hyman Trio — Cheek To Cheek — 1996, FLAC (tracks+.cue) lossless

(Bop, Swing) The Dick Hyman Trio — Cheek To Cheek — 1996, FLAC (tracks+.cue) lossless
Треклист:
The Dick Hyman Trio — Cheek To Cheek
Жанр: Bop, Swing
Год издания диска: 1996
Лейбл: Arbors Records
Номер по каталогу: ARCD 19155
Аудио кодек: FLAC (*.flac)
Тип рипа: tracks+.cue
Битрейт аудио: lossless
Продолжительность: 66:00
Риппер: CitizenBane
Сканы: 300 dpi
Треклист:
01. Cheek To Cheek (5:26)
02. Django (6:44)
03. Well, You Needn't (5:48)
04. Misterioso (8:47)
05. Can't Help Lovin' Dat Man (5:47)
06. Lotus Blossom (3:11)
07. Baby Boom (4:42)
08. Get Out Of Town (8:23)
09. The Bobby Hackett Waltz (2:40)
10. The Claw (7:23)
11. My Inspiration (7:09)
 
 
Лог создания рипа
Exact Audio Copy V1.0 beta 1 from 15. November 2010
EAC extraction logfile from 19. December 2010, 12:54
The Dick Hyman Trio / Cheek to Cheek
Used drive : HL-DT-STDVDRAM GH20NS10 Adapter: 3 ID: 1
Read mode : Secure
Utilize accurate stream : Yes
Defeat audio cache : Yes
Make use of C2 pointers : No
Read offset correction : 667
Overread into Lead-In and Lead-Out : No
Fill up missing offset samples with silence : Yes
Delete leading and trailing silent blocks : No
Null samples used in CRC calculations : Yes
Used interface : Native Win32 interface for Win NT & 2000
Gap handling : Appended to previous track
Used output format : User Defined Encoder
Selected bitrate : 320 kBit/s
Quality : High
Add ID3 tag : No
Command line compressor : C:\Program Files (x86)\Exact Audio Copy\Flac\flac.exe
Additional command line options : -V -8 -T "artist=%a" -T "title=%t" -T "album=%g" -T "date=%y" -T "tracknumber=%n" -T "genre=%m" %s
TOC of the extracted CD
Track | Start | Length | Start sector | End sector
---------------------------------------------------------
1 | 0:00.00 | 5:26.10 | 0 | 24459
2 | 5:26.10 | 6:43.47 | 24460 | 54731
3 | 12:09.57 | 5:48.00 | 54732 | 80831
4 | 17:57.57 | 8:47.30 | 80832 | 120386
5 | 26:45.12 | 5:46.40 | 120387 | 146376
6 | 32:31.52 | 3:10.40 | 146377 | 160666
7 | 35:42.17 | 4:42.13 | 160667 | 181829
8 | 40:24.30 | 8:23.35 | 181830 | 219589
9 | 48:47.65 | 2:40.10 | 219590 | 231599
10 | 51:28.00 | 7:23.35 | 231600 | 264859
11 | 58:51.35 | 7:08.60 | 264860 | 297019
Track 1
Filename G:\CD-Rips\01 - Cheek to Cheek.wav
Pre-gap length 0:00:02.00
Peak level 75.3 %
Extraction speed 5.0 X
Track quality 100.0 %
Test CRC F1D1CCD2
Copy CRC F1D1CCD2
Cannot be verified as accurate (confidence 1) [53DC5E4C], AccurateRip returned [C2771D36]
Copy OK
Track 2
Filename G:\CD-Rips\02 - Django.wav
Pre-gap length 0:00:04.64
Peak level 75.5 %
Extraction speed 5.9 X
Track quality 100.0 %
Test CRC 249808D0
Copy CRC 249808D0
Track not present in AccurateRip database
Copy OK
Track 3
Filename G:\CD-Rips\03 - Well, You Needn't.wav
Pre-gap length 0:00:04.80
Peak level 78.9 %
Extraction speed 5.5 X
Track quality 99.9 %
Test CRC D395C44A
Copy CRC D395C44A
Track not present in AccurateRip database
Copy OK
Track 4
Filename G:\CD-Rips\04 - Misterioso.wav
Pre-gap length 0:00:04.93
Peak level 69.0 %
Extraction speed 7.4 X
Track quality 100.0 %
Test CRC 07E3BA17
Copy CRC 07E3BA17
Track not present in AccurateRip database
Copy OK
Track 5
Filename G:\CD-Rips\05 - Can't Help Lovin' Dat Man.wav
Pre-gap length 0:00:04.22
Peak level 73.4 %
Extraction speed 7.5 X
Track quality 100.0 %
Test CRC C730864E
Copy CRC C730864E
Track not present in AccurateRip database
Copy OK
Track 6
Filename G:\CD-Rips\06 - Lotus Blossom.wav
Pre-gap length 0:00:04.26
Peak level 64.0 %
Extraction speed 7.1 X
Track quality 100.0 %
Test CRC BA684D26
Copy CRC BA684D26
Track not present in AccurateRip database
Copy OK
Track 7
Filename G:\CD-Rips\07 - Baby Boom.wav
Pre-gap length 0:00:04.53
Peak level 75.5 %
Extraction speed 7.9 X
Track quality 100.0 %
Test CRC 3272F7B7
Copy CRC 3272F7B7
Track not present in AccurateRip database
Copy OK
Track 8
Filename G:\CD-Rips\08 - Get Out of Town.wav
Pre-gap length 0:00:05.13
Peak level 69.1 %
Extraction speed 8.9 X
Track quality 100.0 %
Test CRC E2009169
Copy CRC E2009169
Track not present in AccurateRip database
Copy OK
Track 9
Filename G:\CD-Rips\09 - The Bobby Hackett Waltz.wav
Pre-gap length 0:00:05.37
Peak level 53.1 %
Extraction speed 8.0 X
Track quality 100.0 %
Test CRC AEF9810C
Copy CRC AEF9810C
Track not present in AccurateRip database
Copy OK
Track 10
Filename G:\CD-Rips\10 - The Claw.wav
Pre-gap length 0:00:04.24
Peak level 74.7 %
Extraction speed 9.4 X
Track quality 100.0 %
Test CRC 17B5A96F
Copy CRC 17B5A96F
Track not present in AccurateRip database
Copy OK
Track 11
Filename G:\CD-Rips\11 - My Inspiration.wav
Pre-gap length 0:00:04.10
Peak level 66.8 %
Extraction speed 9.5 X
Track quality 100.0 %
Test CRC CF34C0D2
Copy CRC CF34C0D2
Track not present in AccurateRip database
Copy OK
1 track(s) could not be verified as accurate
10 track(s) not present in the AccurateRip database
No tracks could be verified as accurate
You may have a different pressing from the one(s) in the database
No errors occurred
End of status report
==== Log checksum 31C24092DBEBA2CFAC8DB059924C5A3F9662FBB041042A27C9A898F19B29B57B ====
 
Содержание индексной карты (.CUE)
REM GENRE Jazz
REM DATE 1996
REM DISCID 940F780B
REM COMMENT "ExactAudioCopy v1.0b1"
PERFORMER "The Dick Hyman Trio"
TITLE "Cheek to Cheek"
FILE "01 - Cheek to Cheek.wav" WAVE
TRACK 01 AUDIO
TITLE "Cheek to Cheek"
PERFORMER "The Dick Hyman Trio"
INDEX 01 00:00:00
TRACK 02 AUDIO
TITLE "Django"
PERFORMER "The Dick Hyman Trio"
INDEX 00 05:21:37
FILE "02 - Django.wav" WAVE
INDEX 01 00:00:00
TRACK 03 AUDIO
TITLE "Well, You Needn't"
PERFORMER "The Dick Hyman Trio"
INDEX 00 06:38:62
FILE "03 - Well, You Needn't.wav" WAVE
INDEX 01 00:00:00
TRACK 04 AUDIO
TITLE "Misterioso"
PERFORMER "The Dick Hyman Trio"
INDEX 00 05:43:05
FILE "04 - Misterioso.wav" WAVE
INDEX 01 00:00:00
TRACK 05 AUDIO
TITLE "Can't Help Lovin' Dat Man"
PERFORMER "The Dick Hyman Trio"
INDEX 00 08:43:13
FILE "05 - Can't Help Lovin' Dat Man.wav" WAVE
INDEX 01 00:00:00
TRACK 06 AUDIO
TITLE "Lotus Blossom"
PERFORMER "The Dick Hyman Trio"
INDEX 00 05:42:20
FILE "06 - Lotus Blossom.wav" WAVE
INDEX 01 00:00:00
TRACK 07 AUDIO
TITLE "Baby Boom"
PERFORMER "The Dick Hyman Trio"
INDEX 00 03:06:00
FILE "07 - Baby Boom.wav" WAVE
INDEX 01 00:00:00
TRACK 08 AUDIO
TITLE "Get Out of Town"
PERFORMER "The Dick Hyman Trio"
INDEX 00 04:37:03
FILE "08 - Get Out of Town.wav" WAVE
INDEX 01 00:00:00
TRACK 09 AUDIO
TITLE "The Bobby Hackett Waltz"
PERFORMER "The Dick Hyman Trio"
INDEX 00 08:18:07
FILE "09 - The Bobby Hackett Waltz.wav" WAVE
INDEX 01 00:00:00
TRACK 10 AUDIO
TITLE "The Claw"
PERFORMER "The Dick Hyman Trio"
INDEX 00 02:35:67
FILE "10 - The Claw.wav" WAVE
INDEX 01 00:00:00
TRACK 11 AUDIO
TITLE "My Inspiration"
PERFORMER "The Dick Hyman Trio"
INDEX 00 07:19:27
FILE "11 - My Inspiration.wav" WAVE
INDEX 01 00:00:00
По всем вопросам пишите личное сообщение пользователю M0p94ok.
20:52
470
Нет комментариев. Ваш будет первым!