Поиск

(Bop, Swing) Bob Wilber & Kenny Davern — Soprano Summit In Concert (1976) — 1993, FLAC (image+.cue), lossless

(Bop, Swing) Bob Wilber & Kenny Davern — Soprano Summit In Concert (1976) — 1993, FLAC (image+.cue), lossless
Bob Wilber & Kenny Davern — Soprano Summit In Concert (1976)
Жанр: Bop, Swing
Год издания диска: 1993
Издатель (лейбл): Concord
Номер по каталогу: CCD-4029
Аудиокодек: FLAC (*.flac)
Тип рипа: image+.cue
Битрейт аудио: lossless
Продолжительность: 49:02
Релизер: Bezz
Наличие сканов в содержимом раздачи: да
Треклист:
01. Stompy Jones (8:38)
02. The Grapes Are Ready (8:50)
03. Sequin Gown (1:05)
04. Doin' The New Low Down (5:35)
05. The Golden Rooster (4:47)
06. Moxie (3:02)
07. Brother, Can You Spare A Dime (2:54)
08. All By Myself (4:04)
09. Swing That Music (10:06)
Personnel:
Bob Wilber - ss, cl
Kenny Davern - ss, cl
Marty Grosz - g
Ray Brown - b
Jake Hanna - d
 
 
Лог со здания рипа
Exact Audio Copy V0.99 prebeta 5 from 4. May 2009
EAC extraction logfile from 14. May 2011, 13:29
Bob Wilber & Kenny Davern (Soprano Summit) / In Concert {Concord}
Used drive : ASUS DRW-1608P3S Adapter: 0 ID: 1
Read mode : Secure
Utilize accurate stream : Yes
Defeat audio cache : Yes
Make use of C2 pointers : No
Read offset correction : 48
Overread into Lead-In and Lead-Out : No
Fill up missing offset samples with silence : Yes
Delete leading and trailing silent blocks : No
Null samples used in CRC calculations : Yes
Used interface : Native Win32 interface for Win NT & 2000
Used output format : Internal WAV Routines
Sample format : 44.100 Hz; 16 Bit; Stereo
TOC of the extracted CD
Track | Start | Length | Start sector | End sector
---------------------------------------------------------
1 | 0:00.00 | 8:38.20 | 0 | 38869
2 | 8:38.20 | 8:50.12 | 38870 | 78631
3 | 17:28.32 | 1:04.50 | 78632 | 83481
4 | 18:33.07 | 5:35.15 | 83482 | 108621
5 | 24:08.22 | 4:46.43 | 108622 | 130114
6 | 28:54.65 | 3:02.20 | 130115 | 143784
7 | 31:57.10 | 2:54.20 | 143785 | 156854
8 | 34:51.30 | 4:03.60 | 156855 | 175139
9 | 38:55.15 | 10:06.25 | 175140 | 220614
Range status and errors
Selected range
Filename D:\Bob Wilber & Kenny Davern (Soprano Summit) - In Concert {Concord}.wav
Peak level 99.8 %
Range quality 100.0 %
Test CRC 00AA3D9C
Copy CRC 00AA3D9C
Copy OK
No errors occurred
AccurateRip summary
Track 1 not present in database
Track 2 not present in database
Track 3 not present in database
Track 4 not present in database
Track 5 not present in database
Track 6 not present in database
Track 7 not present in database
Track 8 not present in database
Track 9 not present in database
None of the tracks are present in the AccurateRip database
End of status report
 
Содержание индексной карты (.CUE)
REM GENRE Jazz
REM DATE 1976
REM DISCID 630B7D09
REM COMMENT ExactAudioCopy v0.99pb5
PERFORMER "Bob Wilber & Kenny Davern"
TITLE "Soprano Summit In Concert"
FILE "Bob Wilber & Kenny Davern - Soprano Summit.flac" WAVE
TRACK 01 AUDIO
TITLE "Stompy Jones"
INDEX 01 00:00:00
TRACK 02 AUDIO
TITLE "The Grapes Are Ready"
INDEX 01 08:38:20
TRACK 03 AUDIO
TITLE "Sequin Gown"
INDEX 01 17:28:32
TRACK 04 AUDIO
TITLE "Doin' The New Low Down"
INDEX 01 18:33:07
TRACK 05 AUDIO
TITLE "The Golden Rooster"
INDEX 01 24:08:22
TRACK 06 AUDIO
TITLE "Moxie"
INDEX 01 28:54:65
TRACK 07 AUDIO
TITLE "Brother, Can You Spare A Dime"
INDEX 01 31:57:10
TRACK 08 AUDIO
TITLE "All By Myself"
INDEX 01 34:51:30
TRACK 09 AUDIO
TITLE "Swing That Music"
INDEX 01 38:55:15
00:43
683
Нет комментариев. Ваш будет первым!