Поиск

(Bop) Ruby Braff & Roger Kellaway - Inside & Out - 1996, FLAC (tracks+.cue), lossless

(Bop) Ruby Braff & Roger Kellaway - Inside & Out - 1996, FLAC (tracks+.cue), lossless
Треклист:
Ruby Braff & Roger Kellaway – Inside & Out
Жанр: Bop
Год издания: 1996
Издатель (лейбл): Concord
Номер по каталогу: CCD-4691
Аудиокодек: FLAC (*.flac)
Тип рипа: tracks+.cue
Битрейт аудио: lossless
Продолжительность: 60:13
Источник (релизер): What.cd (badbetty)
Наличие сканов в содержимом раздачи: нет
Треклист:
01. Love Walked In (6:07)
02. Yesterdays (7:27)
03. Memories Of You (6:04)
04. I Want To Be Happy (3:59)
05. I Got Rhythm (8:54)
06. Always (6:47)
07. Between The Devil And The Deep Blue Sea (5:20)
08. Basin Street Blues (5:54)
09. Exactly Like You (9:40)
Ruby Braff - cornet
Roger Kellaway - piano
Rec.: Fantasy Studios, Berkeley, CA, September 10 & 11, 1995.
 
 
Лог создания рипа
X Lossless Decoder version 20110703 (135.1)
XLD extraction logfile from 2011-07-12 00:29:00 -0400
Ruby Braff & Roger Kellaway / Inside & Out
Used drive : MATSHITA DVD-R   UJ-857D (revision KCVB)
Ripper mode             : XLD Secure Ripper
Disable audio cache     : OK for the drive with a cache less than 1375KiB
Make use of C2 pointers : NO
Read offset correction  : 102
Max retry count         : 100
Gap status              : Analyzed, Appended
TOC of the extracted CD
     Track |   Start  |  Length  | Start sector | End sector
    ---------------------------------------------------------
        1  | 00:00:00 | 06:07:07 |         0    |    27531
        2  | 06:07:07 | 07:27:00 |     27532    |    61056
        3  | 13:34:07 | 06:03:70 |     61057    |    88351
        4  | 19:38:02 | 03:59:05 |     88352    |   106281
        5  | 23:37:07 | 08:53:63 |    106282    |   146319
        6  | 32:30:70 | 06:47:15 |    146320    |   176859
        7  | 39:18:10 | 05:20:20 |    176860    |   200879
        8  | 44:38:30 | 05:53:72 |    200880    |   227426
        9  | 50:32:27 | 09:40:23 |    227427    |   270949
AccurateRip Summary
    Track 01 : OK (confidence 1)
    Track 02 : OK (confidence 2)
    Track 03 : OK (confidence 2)
    Track 04 : OK (confidence 1)
    Track 05 : OK (confidence 2)
    Track 06 : OK (confidence 1)
    Track 07 : OK (confidence 2)
    Track 08 : OK (confidence 1)
    Track 09 : OK (confidence 1)
        ->All tracks accurately ripped.
All Tracks
    Album gain             : 1.54 dB
    Peak                   : 0.999969
    Statistics
        Read error                           : 0
        Jitter error (maybe fixed)           : 0
        Retry sector count                   : 0
        Damaged sector count                 : 0
Track 01
    Filename : /XLD/Ruby Braff & Roger Kellaway - 1996 - Inside & Out [FLAC]/01 Love Walked In.flac
               /XLD/Ruby Braff & Roger Kellaway - 1996 - Inside & Out [MPEG-4 AAC (320)]/01 Love Walked In.m4a
    Pre-gap length : 00:02:00
    Track gain             : 2.53 dB
    Peak                   : 0.781555
    CRC32 hash (test run)  : B9B4ABFC
    CRC32 hash             : B9B4ABFC
    CRC32 hash (skip zero) : 3D00755E
    AccurateRip signature  : 437885A0
        ->Accurately ripped! (confidence 1)
    Statistics
        Read error                           : 0
        Jitter error (maybe fixed)           : 0
        Retry sector count                   : 0
        Damaged sector count                 : 0
Track 02
    Filename : /XLD/Ruby Braff & Roger Kellaway - 1996 - Inside & Out [FLAC]/02 Yesterdays.flac
               /XLD/Ruby Braff & Roger Kellaway - 1996 - Inside & Out [MPEG-4 AAC (320)]/02 Yesterdays.m4a
    Pre-gap length : 00:01:47
    Track gain             : 1.58 dB
    Peak                   : 0.999969
    CRC32 hash (test run)  : D0CF9F87
    CRC32 hash             : D0CF9F87
    CRC32 hash (skip zero) : B137AFB6
    AccurateRip signature  : 65124805
        ->Accurately ripped! (confidence 2)
    Statistics
        Read error                           : 0
        Jitter error (maybe fixed)           : 0
        Retry sector count                   : 0
        Damaged sector count                 : 0
Track 03
    Filename : /XLD/Ruby Braff & Roger Kellaway - 1996 - Inside & Out [FLAC]/03 Memories of You.flac
               /XLD/Ruby Braff & Roger Kellaway - 1996 - Inside & Out [MPEG-4 AAC (320)]/03 Memories of You.m4a
    Pre-gap length : 00:01:67
    Track gain             : 2.72 dB
    Peak                   : 0.593445
    CRC32 hash (test run)  : CA6B29C2
    CRC32 hash             : CA6B29C2
    CRC32 hash (skip zero) : 37FF3F09
    AccurateRip signature  : F9A7D7E1
        ->Accurately ripped! (confidence 2)
    Statistics
        Read error                           : 0
        Jitter error (maybe fixed)           : 0
        Retry sector count                   : 0
        Damaged sector count                 : 0
Track 04
    Filename : /XLD/Ruby Braff & Roger Kellaway - 1996 - Inside & Out [FLAC]/04 I Want To Be Happy.flac
               /XLD/Ruby Braff & Roger Kellaway - 1996 - Inside & Out [MPEG-4 AAC (320)]/04 I Want To Be Happy.m4a
    Pre-gap length : 00:01:60
    Track gain             : 0.31 dB
    Peak                   : 0.893860
    CRC32 hash (test run)  : F26C5244
    CRC32 hash             : F26C5244
    CRC32 hash (skip zero) : D6F18B80
    AccurateRip signature  : DD335928
        ->Accurately ripped! (confidence 1)
    Statistics
        Read error                           : 0
        Jitter error (maybe fixed)           : 0
        Retry sector count                   : 0
        Damaged sector count                 : 0
Track 05
    Filename : /XLD/Ruby Braff & Roger Kellaway - 1996 - Inside & Out [FLAC]/05 I Got Rhythm.flac
               /XLD/Ruby Braff & Roger Kellaway - 1996 - Inside & Out [MPEG-4 AAC (320)]/05 I Got Rhythm.m4a
    Pre-gap length : 00:01:30
    Track gain             : 0.78 dB
    Peak                   : 0.824310
    CRC32 hash (test run)  : 92D3290E
    CRC32 hash             : 92D3290E
    CRC32 hash (skip zero) : 460FF0E8
    AccurateRip signature  : EA32304F
        ->Accurately ripped! (confidence 2)
    Statistics
        Read error                           : 0
        Jitter error (maybe fixed)           : 0
        Retry sector count                   : 0
        Damaged sector count                 : 0
Track 06
    Filename : /XLD/Ruby Braff & Roger Kellaway - 1996 - Inside & Out [FLAC]/06 Always.flac
               /XLD/Ruby Braff & Roger Kellaway - 1996 - Inside & Out [MPEG-4 AAC (320)]/06 Always.m4a
    Pre-gap length : 00:00:38
    Track gain             : 4.20 dB
    Peak                   : 0.660645
    CRC32 hash (test run)  : 729AF6F7
    CRC32 hash             : 729AF6F7
    CRC32 hash (skip zero) : 95AF7822
    AccurateRip signature  : CECA78DC
        ->Accurately ripped! (confidence 1)
    Statistics
        Read error                           : 0
        Jitter error (maybe fixed)           : 0
        Retry sector count                   : 0
        Damaged sector count                 : 0
Track 07
    Filename : /XLD/Ruby Braff & Roger Kellaway - 1996 - Inside & Out [FLAC]/07 Between the Devil and the Deep Blue Sea.flac
               /XLD/Ruby Braff & Roger Kellaway - 1996 - Inside & Out [MPEG-4 AAC (320)]/07 Between the Devil and the Deep Blue Sea.m4a
    Pre-gap length : 00:00:50
    Track gain             : 0.40 dB
    Peak                   : 0.890167
    CRC32 hash (test run)  : 9FB11BB9
    CRC32 hash             : 9FB11BB9
    CRC32 hash (skip zero) : 414DA09D
    AccurateRip signature  : 42BFFA16
        ->Accurately ripped! (confidence 2)
    Statistics
        Read error                           : 0
        Jitter error (maybe fixed)           : 0
        Retry sector count                   : 0
        Damaged sector count                 : 0
Track 08
    Filename : /XLD/Ruby Braff & Roger Kellaway - 1996 - Inside & Out [FLAC]/08 Basin Street Blues.flac
               /XLD/Ruby Braff & Roger Kellaway - 1996 - Inside & Out [MPEG-4 AAC (320)]/08 Basin Street Blues.m4a
    Pre-gap length : 00:02:08
    Track gain             : 2.50 dB
    Peak                   : 0.921814
    CRC32 hash (test run)  : CF621E0D
    CRC32 hash             : CF621E0D
    CRC32 hash (skip zero) : D93BA8AE
    AccurateRip signature  : E414FBEC
        ->Accurately ripped! (confidence 1)
    Statistics
        Read error                           : 0
        Jitter error (maybe fixed)           : 0
        Retry sector count                   : 0
        Damaged sector count                 : 0
Track 09
    Filename : /XLD/Ruby Braff & Roger Kellaway - 1996 - Inside & Out [FLAC]/09 Exactly Like You.flac
               /XLD/Ruby Braff & Roger Kellaway - 1996 - Inside & Out [MPEG-4 AAC (320)]/09 Exactly Like You.m4a
    Pre-gap length : 00:01:32
    Track gain             : 1.11 dB
    Peak                   : 0.989288
    CRC32 hash (test run)  : 6B55E61E
    CRC32 hash             : 6B55E61E
    CRC32 hash (skip zero) : C25771CA
    AccurateRip signature  : B1100A67
        ->Accurately ripped! (confidence 1)
    Statistics
        Read error                           : 0
        Jitter error (maybe fixed)           : 0
        Retry sector count                   : 0
        Damaged sector count                 : 0
No errors occurred
End of status report
 
 
Содержание индексной карты (.CUE)
TITLE "Inside & Out"
PERFORMER "Ruby Braff & Roger Kellaway"
REM GENRE "Jazz"
REM DATE "1996"
REM DISCID 720E1C09
FILE "01. Love Walked In.flac" WAVE
  TRACK 01 AUDIO
    TITLE "Love Walked In"
    INDEX 01 00:00:00
  TRACK 02 AUDIO
    TITLE "Yesterdays"
    INDEX 00 06:05:35
FILE "02. Yesterdays.flac" WAVE
    INDEX 01 00:00:00
  TRACK 03 AUDIO
    TITLE "Memories Of You"
    INDEX 00 07:25:08
FILE "03. Memories Of You.flac" WAVE
    INDEX 01 00:00:00
  TRACK 04 AUDIO
    TITLE "I Want To Be Happy"
    INDEX 00 06:02:10
FILE "04. I Want To Be Happy.flac" WAVE
    INDEX 01 00:00:00
  TRACK 05 AUDIO
    TITLE "I Got Rhythm"
    INDEX 00 03:57:50
FILE "05. I Got Rhythm.flac" WAVE
    INDEX 01 00:00:00
  TRACK 06 AUDIO
    TITLE "Always"
    INDEX 00 08:53:25
FILE "06. Always.flac" WAVE
    INDEX 01 00:00:00
  TRACK 07 AUDIO
    TITLE "Between The Devil And The Deep Blue Sea"
    INDEX 00 06:46:40
FILE "07. Between The Devil And The Deep Blue Sea.flac" WAVE
    INDEX 01 00:00:00
  TRACK 08 AUDIO
    TITLE "Basin Street Blues"
    INDEX 00 05:18:12
FILE "08. Basin Street Blues.flac" WAVE
    INDEX 01 00:00:00
  TRACK 09 AUDIO
    TITLE "Exactly Like You"
    INDEX 00 05:52:40
FILE "09. Exactly Like You.flac" WAVE
    INDEX 01 00:00:00
Download available for power users only.
22:46
379
Нет комментариев. Ваш будет первым!