Вы используете незарегистрированную версию компонента "Вкладки"!

Поиск

(Bop) Ray Brown & Laurindo Almeida - Moonlight Serenade - 1981, FLAC (image+.cue), lossless

(Bop) Ray Brown & Laurindo Almeida - Moonlight Serenade - 1981, FLAC (image+.cue), lossless
Треклист:
Ray Brown & Laurindo Almeida - Moonlight Serenade
Жанр: Bop
Страна-производитель диска: США
Год издания: 1998
Издатель (лейбл): Kingston World
Номер по каталогу: KIN W 2604
Аудиокодек: FLAC (*.flac)
Тип рипа: image+.cue
Битрейт аудио: lossless
Продолжительность: 70:44
Источник (релизер): диск из моей коллекции
Наличие сканов в содержимом раздачи: да
Треклист:
01. Mondscheinsonate/Round About Midnight (Beethoven-Monk) - 6:05
02. Samba de Angry (Burdett) - 3:45
03. Beautiful Love (Young-King-Alstyne-Gillespie) - 6:34
04. Air on a 'G'-String (J.S.Bach) - 2:33
05. Malaguena (Lecuona) - 4:48
06. Blue Skies (Berlin) - 3:48
07. Make the Man Love You (Trad.) - 2:15
08. Inquietacao (Barroso) - 3:12
09. My Man Is Gone (Gershwin) - 3:44
10. Laurindos (Almeida) - 2:37
11. Mondscheinsonate (Beethoven-Monk) - 6:10
12. Beautiful Love (Young-King-Alstyne-Gillespie) - 6:51
13. Air (J.S.Bach) - 4:17
14. Malaguena (Lecuona) - 4:52
15. Blue Skies (Berlin) - 3:39
16. Make the Man Love You (Trad.) - 2:21
17. Inquietacao (Barroso) - 3:14
Состав:
Ray Brown - bass
Laurindo Almeida - guitar
Recorded at Tonstudio Bauer, Ludwigsburg, Germany in 1981.
 
Лог создания рипа
Exact Audio Copy V1.0 beta 1 from 15. November 2010
EAC extraction logfile from 14. July 2012, 18:34
Ray Brown & Laurindo Almeida / Moonlight Serenade
Used drive : ASUS DRW-24B1LT Adapter: 5 ID: 0
Read mode : Secure
Utilize accurate stream : Yes
Defeat audio cache : Yes
Make use of C2 pointers : No
Read offset correction : 6
Overread into Lead-In and Lead-Out : No
Fill up missing offset samples with silence : Yes
Delete leading and trailing silent blocks : No
Null samples used in CRC calculations : Yes
Used interface : Native Win32 interface for Win NT & 2000
Used output format : User Defined Encoder
Selected bitrate : 768 kBit/s
Quality : High
Add ID3 tag : No
Command line compressor : C:\Program Files\Exact Audio Copy\Flac\flac.exe
Additional command line options : -8 -V -T "ARTIST=%a" -T "TITLE=%t" -T "ALBUM=%g" -T "DATE=%y" -T "TRACKNUMBER=%n" -T "TOTALTRACKS=%x" -T "GENRE=%m" -T "ALBUMARTIST=%v" -T "ALBUM ARTIST=%v" -T "COMMENT=EAC Secure Mode, Test & Copy, AccurateRip, FLAC -8" %s
TOC of the extracted CD
Track | Start | Length | Start sector | End sector
---------------------------------------------------------
1 | 0:00.00 | 6:04.50 | 0 | 27349
2 | 6:04.50 | 3:45.00 | 27350 | 44224
3 | 9:49.50 | 6:34.25 | 44225 | 73799
4 | 16:24.00 | 2:32.50 | 73800 | 85249
5 | 18:56.50 | 4:48.00 | 85250 | 106849
6 | 23:44.50 | 3:48.25 | 106850 | 123974
7 | 27:33.00 | 2:15.00 | 123975 | 134099
8 | 29:48.00 | 3:12.00 | 134100 | 148499
9 | 33:00.00 | 3:44.00 | 148500 | 165299
10 | 36:44.00 | 2:37.25 | 165300 | 177099
11 | 39:21.25 | 6:10.12 | 177100 | 204861
12 | 45:31.37 | 6:50.50 | 204862 | 235661
13 | 52:22.12 | 4:16.38 | 235662 | 254899
14 | 56:38.50 | 4:52.37 | 254900 | 276836
15 | 61:31.12 | 3:38.38 | 276837 | 293224
16 | 65:09.50 | 2:20.62 | 293225 | 303786
17 | 67:30.37 | 3:14.06 | 303787 | 318342
Range status and errors
Selected range
Filename F:\audio\Ray Brown & Laurindo Almeida - Moonlight Serenade.wav
Peak level 90.2 %
Extraction speed 0.2 X
Range quality 100.0 %
Test CRC FC637D9D
Copy CRC FC637D9D
Copy OK
No errors occurred
AccurateRip summary
Track 1 accurately ripped (confidence 5) [5BAC0035]
Track 2 accurately ripped (confidence 6) [C872262F]
Track 3 accurately ripped (confidence 5) [B6AD975B]
Track 4 accurately ripped (confidence 6) [9DE2A593]
Track 5 accurately ripped (confidence 5) [F291CA5A]
Track 6 accurately ripped (confidence 6) [7181F3C9]
Track 7 accurately ripped (confidence 5) [98EA54E0]
Track 8 accurately ripped (confidence 5) [B237B3D3]
Track 9 accurately ripped (confidence 5) [A44FE2AD]
Track 10 accurately ripped (confidence 5) [FCAF52BC]
Track 11 accurately ripped (confidence 5) [2688DC5D]
Track 12 accurately ripped (confidence 5) [AFDC0E8D]
Track 13 accurately ripped (confidence 5) [F0769F55]
Track 14 accurately ripped (confidence 5) [4C98B325]
Track 15 accurately ripped (confidence 5) [902D9D97]
Track 16 accurately ripped (confidence 5) [510FE876]
Track 17 accurately ripped (confidence 5) [B95792F1]
All tracks accurately ripped
End of status report
==== Log checksum 4E0BBC481407ED9661C1D29B8A13E1040038FBBF52691E1A609292CEAE2BE778 ====
 
Содержание индексной карты (.CUE)
REM GENRE Jazz
REM DATE 1981
REM DISCID EF109411
REM COMMENT "ExactAudioCopy v1.0b1"
PERFORMER "Ray Brown & Laurindo Almeida"
TITLE "Moonlight Serenade"
FILE "Ray Brown & Laurindo Almeida - Moonlight Serenade.wav" WAVE
TRACK 01 AUDIO
TITLE "Mondscheinsonate/Round About Midnight"
PERFORMER "Ray Brown & Laurindo Almeida"
INDEX 01 00:00:00
TRACK 02 AUDIO
TITLE "Samba de Angry"
PERFORMER "Ray Brown & Laurindo Almeida"
INDEX 01 06:04:50
TRACK 03 AUDIO
TITLE "Beautiful Love"
PERFORMER "Ray Brown & Laurindo Almeida"
INDEX 01 09:49:50
TRACK 04 AUDIO
TITLE "Air on a 'G'-String"
PERFORMER "Ray Brown & Laurindo Almeida"
INDEX 01 16:24:00
TRACK 05 AUDIO
TITLE "Malaguena"
PERFORMER "Ray Brown & Laurindo Almeida"
INDEX 01 18:56:50
TRACK 06 AUDIO
TITLE "Blue Skies"
PERFORMER "Ray Brown & Laurindo Almeida"
INDEX 01 23:44:50
TRACK 07 AUDIO
TITLE "Make the Man Love You"
PERFORMER "Ray Brown & Laurindo Almeida"
INDEX 01 27:33:00
TRACK 08 AUDIO
TITLE "Inquietacao"
PERFORMER "Ray Brown & Laurindo Almeida"
INDEX 01 29:48:00
TRACK 09 AUDIO
TITLE "My Man Is Gone"
PERFORMER "Ray Brown & Laurindo Almeida"
INDEX 01 33:00:00
TRACK 10 AUDIO
TITLE "Laurindos"
PERFORMER "Ray Brown & Laurindo Almeida"
INDEX 01 36:44:00
TRACK 11 AUDIO
TITLE "Mondscheinsonate"
PERFORMER "Ray Brown & Laurindo Almeida"
INDEX 01 39:21:25
TRACK 12 AUDIO
TITLE "Beautiful Love"
PERFORMER "Ray Brown & Laurindo Almeida"
INDEX 01 45:31:37
TRACK 13 AUDIO
TITLE "Air"
PERFORMER "Ray Brown & Laurindo Almeida"
INDEX 01 52:22:12
TRACK 14 AUDIO
TITLE "Malaguena"
PERFORMER "Ray Brown & Laurindo Almeida"
INDEX 01 56:38:50
TRACK 15 AUDIO
TITLE "Blue Skies"
PERFORMER "Ray Brown & Laurindo Almeida"
INDEX 01 61:31:12
TRACK 16 AUDIO
TITLE "Mak the Man Love You"
PERFORMER "Ray Brown & Laurindo Almeida"
INDEX 01 65:09:50
TRACK 17 AUDIO
TITLE "Inquietacao"
PERFORMER "Ray Brown & Laurindo Almeida"
INDEX 01 67:30:37
 
Review by Alex Henderson
After all these years, some jazz historians continue to lament the end of the big-band era; they continue to remind listeners how much of a thrill it can be to hear 20 or 25 seasoned jazz musicians playing together. But there is also a lot to be said for intimacy in jazz -- the sort of intimacy that serves bassist Ray Brown and Brazilian guitarist Laurindo Almeida delightfully well on Moonlight Serenade. Recorded in Germany in 1981, this session finds Brown and Almeida forming an acoustic duo -- and the two of them enjoy a consistently strong rapport on lyrical, introspective performances of material that ranges from Tin Pan Alley standards ("Blue Skies," "Beautiful Love") to Brazilian songs (Ary Barroso's "Inquietação") to European classical music (Johann Sebastian Bach's Air). One of the most ambitious tracks on the album is a medley that combines Thelonious Monk's "'Round Midnight" with Ludwig van Beethoven's Moonlight Sonata (as opposed to "Moonlight Serenade" -- although this 70-minute CD is titled Moonlight Serenade, the gem that became Glenn Miller's theme song is not part of the program). "'Round Midnight," of course, is one of those standards that has been recorded thousands of times over the years; it has been recorded so often that veteran producer Orrin Keepnews once described it as "the national anthem of jazz." But it isn't every day that one hears "'Round Midnight" successfully blended with Beethoven -- something that Brown and Almeida are able to accomplish because they obviously know one another so well musically. Moonlight Serenade, it should be stressed, wasn't the first time the two of them joined forces: Brown and Almeida had played together in the L.A. 4 in the '70s -- so they were a perfect combination when, in 1981, they recorded the cohesive guitar/bass duets on this excellent CD.
Any questions - support@pro-jazz.com. Есть вопросы - support@pro-jazz.com
04:18
456
Нет комментариев. Ваш будет первым!