Поиск

(Bop, Piano Jazz) Dick Hyman & Ray Kennedy - What Is There To Say? - 2003, FLAC (tracks+.cue), lossless

(Bop, Piano Jazz) Dick Hyman & Ray Kennedy - What Is There To Say? - 2003, FLAC (tracks+.cue), lossless
Треклист:
Dick Hyman & Ray Kennedy – What Is There To Say?
Жанр: Bop, Piano Jazz
Год издания: 2003
Издатель (лейбл): Victoria Company
Номер по каталогу: VC 4354
Аудиокодек: FLAC (*.flac)
Тип рипа: tracks+.cue
Битрейт аудио: lossless
Продолжительность: 63:21
Источник (релизер): What.cd (aNewcreature)
Сканов нет
Треклист:
01. Yes Sir, That's My Baby (4:57)
02. What Is There To Say? (3:59)
03. Idaho (4:39)
04. These Foolish Things (6:22)
05. Jumpin' With Symphony Sid (6:24)
06. One Morning In May (6:46)
07. Just A Skosh (3:15)
08. It's The Talk Of The Town (3:44)
09. For Dancers Only (3:22)
10. Can't We Be Friends? (4:04)
11. Waltzin' Without The 'G' (3:33)
12. Clara, Clara (5:50)
13. I Ain't Got Nobody (3:00)
14. Goodbye (3:27)
Dick Hyman – p
Ray Kennedy – p
Rec.: February 27 - March 4, 2003.
 
 
Лог создания рипа
Exact Audio Copy V0.99 prebeta 5 from 4. May 2009
EAC extraction logfile from 30. June 2010, 5:58
Dick Hyman & Ray Kennedy / What Is There To Say?
Used drive : LITE-ON DVDRW SOHW-1213S Adapter: 1 ID: 0
Read mode : Secure
Utilize accurate stream : Yes
Defeat audio cache : Yes
Make use of C2 pointers : No
Read offset correction : 12
Overread into Lead-In and Lead-Out : No
Fill up missing offset samples with silence : Yes
Delete leading and trailing silent blocks : No
Null samples used in CRC calculations : Yes
Used interface : Native Win32 interface for Win NT & 2000
Gap handling : Appended to previous track
Used output format : User Defined Encoder
Selected bitrate : 1024 kBit/s
Quality : High
Add ID3 tag : No
Command line compressor : C:\Program Files\FLAC\flac.exe
Additional command line options : -V -8 -T "artist=%a" -T "title=%t" -T "album=%g" -T "date=%y" -T "tracknumber=%n" -T "genre=%m" %s
TOC of the extracted CD
Track | Start | Length | Start sector | End sector
---------------------------------------------------------
1 | 0:00.00 | 4:57.18 | 0 | 22292
2 | 4:57.18 | 3:59.28 | 22293 | 40245
3 | 8:56.46 | 4:39.00 | 40246 | 61170
4 | 13:35.46 | 6:21.59 | 61171 | 89804
5 | 19:57.30 | 6:23.45 | 89805 | 118574
6 | 26:21.00 | 6:45.55 | 118575 | 149004
7 | 33:06.55 | 3:14.45 | 149005 | 163599
8 | 36:21.25 | 3:44.08 | 163600 | 180407
9 | 40:05.33 | 3:22.09 | 180408 | 195566
10 | 43:27.42 | 4:03.40 | 195567 | 213831
11 | 47:31.07 | 3:32.69 | 213832 | 229800
12 | 51:04.01 | 5:49.63 | 229801 | 256038
13 | 56:53.64 | 2:59.56 | 256039 | 269519
14 | 59:53.45 | 3:27.07 | 269520 | 285051
Track 1
Filename C:\EAC\Dick Hyman & Ray Kennedy - 2003 - What Is There To Say\ 01 - Yes Sir, That's My Baby.wav
Pre-gap length 0:00:02.00
Peak level 97.7 %
Track quality 100.0 %
Test CRC D0DC8160
Copy CRC D0DC8160
Track not present in AccurateRip database
Copy OK
Track 2
Filename C:\EAC\Dick Hyman & Ray Kennedy - 2003 - What Is There To Say\ 02 - What Is There To Say .wav
Pre-gap length 0:00:02.00
Peak level 97.7 %
Track quality 100.0 %
Test CRC E10CC017
Copy CRC E10CC017
Track not present in AccurateRip database
Copy OK
Track 3
Filename C:\EAC\Dick Hyman & Ray Kennedy - 2003 - What Is There To Say\ 03 - Idaho.wav
Pre-gap length 0:00:02.00
Peak level 97.7 %
Track quality 100.0 %
Test CRC 8B0B307D
Copy CRC 8B0B307D
Track not present in AccurateRip database
Copy OK
Track 4
Filename C:\EAC\Dick Hyman & Ray Kennedy - 2003 - What Is There To Say\ 04 - These Foolish Things.wav
Pre-gap length 0:00:02.00
Peak level 97.7 %
Track quality 100.0 %
Test CRC 24CA4372
Copy CRC 24CA4372
Track not present in AccurateRip database
Copy OK
Track 5
Filename C:\EAC\Dick Hyman & Ray Kennedy - 2003 - What Is There To Say\ 05 - Jumpin' With Symphony Sid.wav
Pre-gap length 0:00:02.00
Peak level 97.7 %
Track quality 100.0 %
Test CRC 45543F25
Copy CRC 45543F25
Track not present in AccurateRip database
Copy OK
Track 6
Filename C:\EAC\Dick Hyman & Ray Kennedy - 2003 - What Is There To Say\ 06 - One Morning In May.wav
Pre-gap length 0:00:02.00
Peak level 97.7 %
Track quality 100.0 %
Test CRC BA50CFC6
Copy CRC BA50CFC6
Track not present in AccurateRip database
Copy OK
Track 7
Filename C:\EAC\Dick Hyman & Ray Kennedy - 2003 - What Is There To Say\ 07 - Just A Skosh.wav
Pre-gap length 0:00:02.00
Peak level 97.7 %
Track quality 99.9 %
Test CRC BEBFB8F6
Copy CRC BEBFB8F6
Track not present in AccurateRip database
Copy OK
Track 8
Filename C:\EAC\Dick Hyman & Ray Kennedy - 2003 - What Is There To Say\ 08 - It's The Talk Of The Town.wav
Pre-gap length 0:00:02.00
Peak level 97.7 %
Track quality 99.9 %
Test CRC 05E42908
Copy CRC 05E42908
Track not present in AccurateRip database
Copy OK
Track 9
Filename C:\EAC\Dick Hyman & Ray Kennedy - 2003 - What Is There To Say\ 09 - For Dancers Only.wav
Pre-gap length 0:00:02.00
Peak level 97.7 %
Track quality 100.0 %
Test CRC B3A6BEBF
Copy CRC B3A6BEBF
Track not present in AccurateRip database
Copy OK
Track 10
Filename C:\EAC\Dick Hyman & Ray Kennedy - 2003 - What Is There To Say\ 10 - Can't We Be Friends .wav
Pre-gap length 0:00:02.00
Peak level 97.7 %
Track quality 100.0 %
Test CRC 2E6DE466
Copy CRC 2E6DE466
Track not present in AccurateRip database
Copy OK
Track 11
Filename C:\EAC\Dick Hyman & Ray Kennedy - 2003 - What Is There To Say\ 11 - Waltzin' Without The 'G'.wav
Pre-gap length 0:00:02.00
Peak level 97.7 %
Track quality 100.0 %
Test CRC 8DBFB093
Copy CRC 8DBFB093
Track not present in AccurateRip database
Copy OK
Track 12
Filename C:\EAC\Dick Hyman & Ray Kennedy - 2003 - What Is There To Say\ 12 - Clara, Clara.wav
Pre-gap length 0:00:02.00
Peak level 97.7 %
Track quality 100.0 %
Test CRC 43B5AF3E
Copy CRC 43B5AF3E
Track not present in AccurateRip database
Copy OK
Track 13
Filename C:\EAC\Dick Hyman & Ray Kennedy - 2003 - What Is There To Say\ 13 - I Ain't Got Nobody.wav
Pre-gap length 0:00:02.00
Peak level 97.7 %
Track quality 100.0 %
Test CRC BDCD5926
Copy CRC BDCD5926
Track not present in AccurateRip database
Copy OK
Track 14
Filename C:\EAC\Dick Hyman & Ray Kennedy - 2003 - What Is There To Say\ 14 - Goodbye.wav
Pre-gap length 0:00:02.00
Peak level 97.7 %
Track quality 100.0 %
Test CRC E650B0CF
Copy CRC E650B0CF
Track not present in AccurateRip database
Copy OK
None of the tracks are present in the AccurateRip database
No errors occurred
End of status report
 
Содержание индексной карты (.CUE)
REM GENRE Jazz
REM DATE 2003
REM DISCID E50ED80E
REM COMMENT "ExactAudioCopy v0.99pb5"
PERFORMER "Dick Hyman & Ray Kennedy"
TITLE "What Is There To Say?"
FILE "01. Yes Sir, That's My Baby.flac" WAVE
TRACK 01 AUDIO
TITLE "Yes Sir, That's My Baby"
PERFORMER "Dick Hyman & Ray Kennedy"
INDEX 01 00:00:00
TRACK 02 AUDIO
TITLE "What Is There To Say?"
PERFORMER "Dick Hyman & Ray Kennedy"
INDEX 00 04:55:18
FILE "02. What Is There To Say.flac" WAVE
INDEX 01 00:00:00
TRACK 03 AUDIO
TITLE "Idaho"
PERFORMER "Dick Hyman & Ray Kennedy"
INDEX 00 03:57:28
FILE "03. Idaho.flac" WAVE
INDEX 01 00:00:00
TRACK 04 AUDIO
TITLE "These Foolish Things"
PERFORMER "Dick Hyman & Ray Kennedy"
INDEX 00 04:37:00
FILE "04. These Foolish Things.flac" WAVE
INDEX 01 00:00:00
TRACK 05 AUDIO
TITLE "Jumpin' With Symphony Sid"
PERFORMER "Dick Hyman & Ray Kennedy"
INDEX 00 06:19:59
FILE "05. Jumpin' With Symphony Sid.flac" WAVE
INDEX 01 00:00:00
TRACK 06 AUDIO
TITLE "One Morning In May"
PERFORMER "Dick Hyman & Ray Kennedy"
INDEX 00 06:21:45
FILE "06. One Morning In May.flac" WAVE
INDEX 01 00:00:00
TRACK 07 AUDIO
TITLE "Just A Skosh"
PERFORMER "Dick Hyman & Ray Kennedy"
INDEX 00 06:43:55
FILE "07. Just A Skosh.flac" WAVE
INDEX 01 00:00:00
TRACK 08 AUDIO
TITLE "It's The Talk Of The Town"
PERFORMER "Dick Hyman & Ray Kennedy"
INDEX 00 03:12:45
FILE "08. It's The Talk Of The Town.flac" WAVE
INDEX 01 00:00:00
TRACK 09 AUDIO
TITLE "For Dancers Only"
PERFORMER "Dick Hyman & Ray Kennedy"
INDEX 00 03:42:08
FILE "09. For Dancers Only.flac" WAVE
INDEX 01 00:00:00
TRACK 10 AUDIO
TITLE "Can't We Be Friends?"
PERFORMER "Dick Hyman & Ray Kennedy"
INDEX 00 03:20:09
FILE "10. Can't We Be Friends.flac" WAVE
INDEX 01 00:00:00
TRACK 11 AUDIO
TITLE "Waltzin' Without The 'G'"
PERFORMER "Dick Hyman & Ray Kennedy"
INDEX 00 04:01:40
FILE "11. Waltzin' Without The 'G'.flac" WAVE
INDEX 01 00:00:00
TRACK 12 AUDIO
TITLE "Clara, Clara"
PERFORMER "Dick Hyman & Ray Kennedy"
INDEX 00 03:30:69
FILE "12. Clara, Clara.flac" WAVE
INDEX 01 00:00:00
TRACK 13 AUDIO
TITLE "I Ain't Got Nobody"
PERFORMER "Dick Hyman & Ray Kennedy"
INDEX 00 05:47:63
FILE "13. I Ain't Got Nobody.flac" WAVE
INDEX 01 00:00:00
TRACK 14 AUDIO
TITLE "Goodbye"
PERFORMER "Dick Hyman & Ray Kennedy"
INDEX 00 02:57:56
FILE "14. Goodbye.flac" WAVE
INDEX 01 00:00:00
По всем вопросам пишите личное сообщение пользователю M0p94ok.
06:40
489
Нет комментариев. Ваш будет первым!