Поиск

(Bop, Piano) Bill Evans Trio - The Village Vanguard Sessions [Live album](2CD) - 1961/2012, FLAC (tracks+.cue), lossless

(Bop, Piano) Bill Evans Trio - The Village Vanguard Sessions [Live album](2CD) - 1961/2012, FLAC (tracks+.cue), lossless
Треклист:
Bill Evans Trio - The Village Vanguard Sessions (2CD)

Жанр: Bop, Piano
Год издания: 1961/2012
Издатель (лейбл): Essential Jazz Classics
Номер по каталогу: EJC55564
Страна: U.S.A.
Аудиокодек: FLAC (*.flac)
Тип рипа: tracks+.cue
Битрейт аудио: lossless
Продолжительность: 60:16:50
Источник (релизер): вата
Наличие сканов в содержимом раздачи: да
Треклист:
CD 1
01. Alice In Wonderland [Alt Tk] 7:05
02. My Foolish Heart 4:58
03. All Of You [Alt Tk ##1] 8:14
04. My Romance 7:09
05. Some Other Time
06. Solar 8:48
07. Gloria’s Step 6:06
08. My Man’s Gone Now 6:21
09. All Of You 8:32
10. Detour Ahead [Alt Tk] 7:17
11. Conversation 0:30
12. Waltz For Debby [Alt Tk] 6:49
CD 2
01. Alice In Wonderland 8:32
02. I Loves You Porgy 6:10
03. My Romance [Alt Tk] 7:26
04. Milestones 6:33
05. Detour Ahead 7:40
06. Gloria’s Step [Alt Tk] 7:00
07. Waltz For Debby 6:57
08. All Of You [Alt Tk ##2] 8:17
09. Jade Visions [Alt Tk] 4:10
10. Jade Visions 4:06
11. A Few Final Bars 1:16
Bill Evans - piano
Scott LaFaro - bass
Paul Motian - drums
Recorded live June 25, 1961, at The Village Vanguard, NYC
release date
April 24, 2012
 
RipInfo
 
 
Лог создания рипа

 
 
 
CD1
Exact Audio Copy V1.0 beta 2 from 29. April 2011
EAC extraction logfile from 5. August 2012, 19:44
Bill Evans Trio / The Village Vanguard Sessions (Disc 1)
Used drive : PLEXTOR DVDR PX-L890SA Adapter: 2 ID: 1
Read mode : Secure
Utilize accurate stream : Yes
Defeat audio cache : Yes
Make use of C2 pointers : No
Read offset correction : 6
Overread into Lead-In and Lead-Out : No
Fill up missing offset samples with silence : Yes
Delete leading and trailing silent blocks : No
Null samples used in CRC calculations : Yes
Used interface : Native Win32 interface for Win NT & 2000
Gap handling : Appended to previous track
Used output format : User Defined Encoder
Selected bitrate : 256 kBit/s
Quality : High
Add ID3 tag : No
Command line compressor : C:\Program Files (x86)\Exact Audio Copy\FLAC\FLAC.EXE
Additional command line options : -8 -V -T "ARTIST=%artist%" -T "TITLE=%title%" -T "ALBUM=%albumtitle%" -T "DATE=%year%" -T "TRACKNUMBER=%tracknr%" -T "TOTALTRACKS=%numtracks%" -T "GENRE=%genre%" -T "ALBUMARTIST=%albumartist%" -T "ALBUM ARTIST=%albumartist%
TOC of the extracted CD
Track | Start | Length | Start sector | End sector
---------------------------------------------------------
1 | 0:00.00 | 7:05.00 | 0 | 31874
2 | 7:05.00 | 4:58.00 | 31875 | 54224
3 | 12:03.00 | 8:14.00 | 54225 | 91274
4 | 20:17.00 | 7:09.00 | 91275 | 123449
5 | 27:26.00 | 4:57.68 | 123450 | 145792
6 | 32:23.68 | 8:48.45 | 145793 | 185437
7 | 41:12.38 | 6:06.37 | 185438 | 212924
8 | 47:19.00 | 6:21.00 | 212925 | 241499
9 | 53:40.00 | 8:32.19 | 241500 | 279918
10 | 62:12.19 | 7:17.19 | 279919 | 312712
11 | 69:29.38 | 0:30.37 | 312713 | 314999
12 | 70:00.00 | 6:49.57 | 315000 | 345731
Track 1
Filename F:\Flac Rips\01 - Alice in Wonderland [alt tk].wav
Pre-gap length 0:00:02.00
Peak level 97.9 %
Extraction speed 4.2 X
Track quality 100.0 %
Test CRC 7D4C75C1
Copy CRC 7D4C75C1
Track not present in AccurateRip database
Copy OK
Track 2
Filename F:\Flac Rips\02 - My Foolish Heart.wav
Peak level 95.2 %
Extraction speed 4.6 X
Track quality 100.0 %
Test CRC 476C41F1
Copy CRC 476C41F1
Track not present in AccurateRip database
Copy OK
Track 3
Filename F:\Flac Rips\03 - All Of You [alt tk#1].wav
Peak level 97.9 %
Extraction speed 4.7 X
Track quality 99.9 %
Test CRC 0C7F7C9E
Copy CRC 0C7F7C9E
Track not present in AccurateRip database
Copy OK
Track 4
Filename F:\Flac Rips\04 - My Romance.wav
Peak level 97.9 %
Extraction speed 5.8 X
Track quality 100.0 %
Test CRC F6D2B560
Copy CRC F6D2B560
Track not present in AccurateRip database
Copy OK
Track 5
Filename F:\Flac Rips\05 - Some Other Time.wav
Peak level 64.7 %
Extraction speed 6.0 X
Track quality 100.0 %
Test CRC 3606C60C
Copy CRC 3606C60C
Track not present in AccurateRip database
Copy OK
Track 6
Filename F:\Flac Rips\06 - Solar.wav
Peak level 97.9 %
Extraction speed 6.6 X
Track quality 100.0 %
Test CRC 58DCAB89
Copy CRC 58DCAB89
Track not present in AccurateRip database
Copy OK
Track 7
Filename F:\Flac Rips\07 - Gloria's Step.wav
Peak level 97.9 %
Extraction speed 5.9 X
Track quality 99.9 %
Test CRC ACAAA200
Copy CRC ACAAA200
Track not present in AccurateRip database
Copy OK
Track 8
Filename F:\Flac Rips\08 - My Man's Gone Now.wav
Peak level 97.9 %
Extraction speed 7.2 X
Track quality 100.0 %
Test CRC 50D7E58B
Copy CRC 50D7E58B
Track not present in AccurateRip database
Copy OK
Track 9
Filename F:\Flac Rips\09 - All Of You.wav
Peak level 97.9 %
Extraction speed 7.0 X
Track quality 99.9 %
Test CRC DC1656FE
Copy CRC DC1656FE
Track not present in AccurateRip database
Copy OK
Track 10
Filename F:\Flac Rips\10 - Detour Ahead [alt tk].wav
Peak level 97.9 %
Extraction speed 7.0 X
Track quality 99.9 %
Test CRC F0E640DC
Copy CRC F0E640DC
Track not present in AccurateRip database
Copy OK
Track 11
Filename F:\Flac Rips\11 - Conversation.wav
Peak level 23.5 %
Extraction speed 3.9 X
Track quality 100.0 %
Test CRC 2DC67B78
Copy CRC 2DC67B78
Track not present in AccurateRip database
Copy OK
Track 12
Filename F:\Flac Rips\12 - Waltz For Debby [alt tk].wav
Peak level 97.9 %
Extraction speed 8.3 X
Track quality 100.0 %
Test CRC 64B9B738
Copy CRC 64B9B738
Track not present in AccurateRip database
Copy OK
None of the tracks are present in the AccurateRip database
No errors occurred
End of status report
==== Log checksum 74A17A10AD8B81C0592A9F121D02CCA82969E21A904911076048692BD40268EF ====
 
 
CD2
Exact Audio Copy V1.0 beta 2 from 29. April 2011
EAC extraction logfile from 5. August 2012, 21:23
Bill Evans Trio / The Village Vanguard Sessions (Disc 2)
Used drive : PLEXTOR DVDR PX-L890SA Adapter: 2 ID: 1
Read mode : Secure
Utilize accurate stream : Yes
Defeat audio cache : Yes
Make use of C2 pointers : No
Read offset correction : 6
Overread into Lead-In and Lead-Out : No
Fill up missing offset samples with silence : Yes
Delete leading and trailing silent blocks : No
Null samples used in CRC calculations : Yes
Used interface : Native Win32 interface for Win NT & 2000
Gap handling : Appended to previous track
Used output format : User Defined Encoder
Selected bitrate : 256 kBit/s
Quality : High
Add ID3 tag : No
Command line compressor : C:\Program Files (x86)\Exact Audio Copy\FLAC\FLAC.EXE
Additional command line options : -8 -V -T "ARTIST=%artist%" -T "TITLE=%title%" -T "ALBUM=%albumtitle%" -T "DATE=%year%" -T "TRACKNUMBER=%tracknr%" -T "TOTALTRACKS=%numtracks%" -T "GENRE=%genre%" -T "ALBUMARTIST=%albumartist%" -T "ALBUM ARTIST=%albumartist%
TOC of the extracted CD
Track | Start | Length | Start sector | End sector
---------------------------------------------------------
1 | 0:00.00 | 8:32.29 | 0 | 38428
2 | 8:32.29 | 6:10.48 | 38429 | 66226
3 | 14:43.02 | 7:26.55 | 66227 | 99731
4 | 22:09.57 | 6:33.18 | 99732 | 129224
5 | 28:43.00 | 7:40.38 | 129225 | 163762
6 | 36:23.38 | 7:00.56 | 163763 | 195318
7 | 43:24.19 | 6:57.56 | 195319 | 226649
8 | 50:22.00 | 8:17.57 | 226650 | 263981
9 | 58:39.57 | 4:10.18 | 263982 | 282749
10 | 62:50.00 | 4:06.22 | 282750 | 301221
11 | 66:56.22 | 1:16.07 | 301222 | 306928
Track 1
Filename F:\Flac Rips\01 - Alice in Wonderland.wav
Pre-gap length 0:00:02.00
Peak level 97.9 %
Extraction speed 4.3 X
Track quality 100.0 %
Test CRC BCECDD5B
Copy CRC BCECDD5B
Track not present in AccurateRip database
Copy OK
Track 2
Filename F:\Flac Rips\02 - I Loves You Porgy.wav
Peak level 97.9 %
Extraction speed 4.9 X
Track quality 100.0 %
Test CRC 2FCAE4F8
Copy CRC 2FCAE4F8
Track not present in AccurateRip database
Copy OK
Track 3
Filename F:\Flac Rips\03 - My Romance [alt tk].wav
Peak level 97.9 %
Extraction speed 5.4 X
Track quality 100.0 %
Test CRC 5AA3B177
Copy CRC 5AA3B177
Track not present in AccurateRip database
Copy OK
Track 4
Filename F:\Flac Rips\04 - Milestones.wav
Peak level 97.9 %
Extraction speed 5.9 X
Track quality 100.0 %
Test CRC 25DB3C42
Copy CRC 25DB3C42
Track not present in AccurateRip database
Copy OK
Track 5
Filename F:\Flac Rips\05 - Detour Ahead.wav
Peak level 80.8 %
Extraction speed 6.4 X
Track quality 100.0 %
Test CRC 2DE22C16
Copy CRC 2DE22C16
Track not present in AccurateRip database
Copy OK
Track 6
Filename F:\Flac Rips\06 - Gloria's Step [alt tk].wav
Peak level 97.9 %
Extraction speed 6.8 X
Track quality 100.0 %
Test CRC 29D63356
Copy CRC 29D63356
Track not present in AccurateRip database
Copy OK
Track 7
Filename F:\Flac Rips\07 - Waltz For Debby.wav
Peak level 97.9 %
Extraction speed 7.1 X
Track quality 100.0 %
Test CRC 171658D3
Copy CRC 171658D3
Track not present in AccurateRip database
Copy OK
Track 8
Filename F:\Flac Rips\08 - All Of You [alt tk#2].wav
Peak level 97.9 %
Extraction speed 7.7 X
Track quality 100.0 %
Test CRC DC333EF1
Copy CRC DC333EF1
Track not present in AccurateRip database
Copy OK
Track 9
Filename F:\Flac Rips\09 - Jade Visions [alt tk].wav
Peak level 88.4 %
Extraction speed 7.3 X
Track quality 100.0 %
Test CRC DB61ABB5
Copy CRC DB61ABB5
Track not present in AccurateRip database
Copy OK
Track 10
Filename F:\Flac Rips\10 - Jade Visions.wav
Peak level 81.0 %
Extraction speed 6.0 X
Track quality 99.9 %
Test CRC 411B0BC0
Copy CRC 411B0BC0
Track not present in AccurateRip database
Copy OK
Track 11
Filename F:\Flac Rips\11 - A Few Final Bars.wav
Peak level 53.1 %
Extraction speed 5.8 X
Track quality 100.0 %
Test CRC 4D694454
Copy CRC 4D694454
Track not present in AccurateRip database
Copy OK
None of the tracks are present in the AccurateRip database
No errors occurred
End of status report
==== Log checksum D3C3456C206459880D7BD963097611AEC811AD191F4A8EF5536E0C49047D27E5 ====
 
 
Содержание индексной карты (.CUE)

 
 
 
CD1
REM GENRE Jazz
REM DATE 2012
REM DISCID 9F12010C
REM COMMENT "ExactAudioCopy v1.0b2"
PERFORMER "Bill Evans Trio"
TITLE "The Village Vanguard Sessions (Disc 1)"
FILE "01 - Alice in Wonderland [alt tk].wav" WAVE
TRACK 01 AUDIO
TITLE "Alice in Wonderland [alt tk]"
PERFORMER "Bill Evans Trio"
INDEX 01 00:00:00
FILE "02 - My Foolish Heart.wav" WAVE
TRACK 02 AUDIO
TITLE "My Foolish Heart"
PERFORMER "Bill Evans Trio"
INDEX 01 00:00:00
FILE "03 - All Of You [alt tk#1].wav" WAVE
TRACK 03 AUDIO
TITLE "All Of You [alt tk#1]"
PERFORMER "Bill Evans Trio"
INDEX 01 00:00:00
FILE "04 - My Romance.wav" WAVE
TRACK 04 AUDIO
TITLE "My Romance"
PERFORMER "Bill Evans Trio"
INDEX 01 00:00:00
FILE "05 - Some Other Time.wav" WAVE
TRACK 05 AUDIO
TITLE "Some Other Time"
PERFORMER "Bill Evans Trio"
INDEX 01 00:00:00
FILE "06 - Solar.wav" WAVE
TRACK 06 AUDIO
TITLE "Solar"
PERFORMER "Bill Evans Trio"
INDEX 01 00:00:00
FILE "07 - Gloria's Step.wav" WAVE
TRACK 07 AUDIO
TITLE "Gloria's Step"
PERFORMER "Bill Evans Trio"
INDEX 01 00:00:00
FILE "08 - My Man's Gone Now.wav" WAVE
TRACK 08 AUDIO
TITLE "My Man's Gone Now"
PERFORMER "Bill Evans Trio"
INDEX 01 00:00:00
FILE "09 - All Of You.wav" WAVE
TRACK 09 AUDIO
TITLE "All Of You"
PERFORMER "Bill Evans Trio"
INDEX 01 00:00:00
FILE "10 - Detour Ahead [alt tk].wav" WAVE
TRACK 10 AUDIO
TITLE "Detour Ahead [alt tk]"
PERFORMER "Bill Evans Trio"
INDEX 01 00:00:00
FILE "11 - Conversation.wav" WAVE
TRACK 11 AUDIO
TITLE "Conversation"
PERFORMER "Bill Evans Trio"
INDEX 01 00:00:00
FILE "12 - Waltz For Debby [alt tk].wav" WAVE
TRACK 12 AUDIO
TITLE "Waltz For Debby [alt tk]"
PERFORMER "Bill Evans Trio"
INDEX 01 00:00:00
 
 
CD2
REM GENRE Jazz
REM DATE 2012
REM DISCID 8A0FFC0B
REM COMMENT "ExactAudioCopy v1.0b2"
PERFORMER "Bill Evans Trio"
TITLE "The Village Vanguard Sessions (Disc 2)"
FILE "01 - Alice in Wonderland.wav" WAVE
TRACK 01 AUDIO
TITLE "Alice in Wonderland"
PERFORMER "Bill Evans Trio"
INDEX 01 00:00:00
FILE "02 - I Loves You Porgy.wav" WAVE
TRACK 02 AUDIO
TITLE "I Loves You Porgy"
PERFORMER "Bill Evans Trio"
INDEX 01 00:00:00
FILE "03 - My Romance [alt tk].wav" WAVE
TRACK 03 AUDIO
TITLE "My Romance [alt tk]"
PERFORMER "Bill Evans Trio"
INDEX 01 00:00:00
FILE "04 - Milestones.wav" WAVE
TRACK 04 AUDIO
TITLE "Milestones"
PERFORMER "Bill Evans Trio"
INDEX 01 00:00:00
FILE "05 - Detour Ahead.wav" WAVE
TRACK 05 AUDIO
TITLE "Detour Ahead"
PERFORMER "Bill Evans Trio"
INDEX 01 00:00:00
FILE "06 - Gloria's Step [alt tk].wav" WAVE
TRACK 06 AUDIO
TITLE "Gloria's Step [alt tk]"
PERFORMER "Bill Evans Trio"
INDEX 01 00:00:00
FILE "07 - Waltz For Debby.wav" WAVE
TRACK 07 AUDIO
TITLE "Waltz For Debby"
PERFORMER "Bill Evans Trio"
INDEX 01 00:00:00
FILE "08 - All Of You [alt tk#2].wav" WAVE
TRACK 08 AUDIO
TITLE "All Of You [alt tk#2]"
PERFORMER "Bill Evans Trio"
INDEX 01 00:00:00
FILE "09 - Jade Visions [alt tk].wav" WAVE
TRACK 09 AUDIO
TITLE "Jade Visions [alt tk]"
PERFORMER "Bill Evans Trio"
INDEX 01 00:00:00
FILE "10 - Jade Visions.wav" WAVE
TRACK 10 AUDIO
TITLE "Jade Visions"
PERFORMER "Bill Evans Trio"
INDEX 01 00:00:00
FILE "11 - A Few Final Bars.wav" WAVE
TRACK 11 AUDIO
TITLE "A Few Final Bars"
PERFORMER "Bill Evans Trio"
INDEX 01 00:00:00
 
 
Лог проверки качества

 
 
 
CD1
[CTDB TOCID: i8b6EiO_v9xfRZj5J6oD5cXPbaU-] disk not present in database.
[AccurateRip ID: 0023b405-014c3711-9f12010c] disk not present in database.
Track Peak [ CRC32 ] [W/O NULL] [ LOG ]
-- 97,9 [0AE8B2B1] [C0774830]
01 97,9 [7D4C75C1] [969EE162] CRC32
02 95,2 [476C41F1] [DD740F1E] CRC32
03 97,9 [0C7F7C9E] [D8A0553B] CRC32
04 97,9 [F6D2B560] [5B09F2F5] CRC32
05 64,7 [3606C60C] [61A86330] CRC32
06 97,9 [58DCAB89] [1AA3BE10] CRC32
07 97,9 [ACAAA200] [462DE81F] CRC32
08 97,9 [50D7E58B] [023264D8] CRC32
09 97,9 [DC1656FE] [0E70B3E5] CRC32
10 97,9 [F0E640DC] [7CCDA3CA] CRC32
11 23,5 [2DC67B78] [D2008D24] CRC32
12 97,9 [64B9B738] [E5EF636E] CRC32
 
 
CD2
[CUETools log; Date: 29.12.2012 16:25:58; Version: 2.1.4]
[CTDB TOCID: i8b6EiO_v9xfRZj5J6oD5cXPbaU-] disk not present in database.
[AccurateRip ID: 0023b405-014c3711-9f12010c] disk not present in database.
Track Peak [ CRC32 ] [W/O NULL] [ LOG ]
-- 97,9 [0AE8B2B1] [C0774830]
01 97,9 [7D4C75C1] [969EE162] CRC32
02 95,2 [476C41F1] [DD740F1E] CRC32
03 97,9 [0C7F7C9E] [D8A0553B] CRC32
04 97,9 [F6D2B560] [5B09F2F5] CRC32
05 64,7 [3606C60C] [61A86330] CRC32
06 97,9 [58DCAB89] [1AA3BE10] CRC32
07 97,9 [ACAAA200] [462DE81F] CRC32
08 97,9 [50D7E58B] [023264D8] CRC32
09 97,9 [DC1656FE] [0E70B3E5] CRC32
10 97,9 [F0E640DC] [7CCDA3CA] CRC32
11 23,5 [2DC67B78] [D2008D24] CRC32
12 97,9 [64B9B738] [E5EF636E] CRC32
По всем вопросам пишите личное сообщение пользователю M0p94ok.
11:09
234
Нет комментариев. Ваш будет первым!