Вы используете незарегистрированную версию компонента "Вкладки"!

Поиск

(Bop, Mainstream Jazz) Ray Brown & Laurindo Almeida - Moonlight Serenade {1981} - 1984, WavPack (image+.cue), lossless

(Bop, Mainstream Jazz) Ray Brown & Laurindo Almeida - Moonlight Serenade {1981} - 1984, WavPack (image+.cue), lossless
Треклист:
•Ray Brown & Laurindo Almeida - Moonlight Serenade {1981}•
Жанр: Bop, Mainstream Jazz
Год издания: 1984
Издатель (лейбл): Bell Records
Номер по каталогу: BLR 84 007
Аудиокодек: WavPack (*.wv)
Тип рипа: image+.cue
Битрейт аудио: lossless
Продолжительность: 00:39:19
Источник (релизер): frafra64
Наличие сканов в содержимом раздачи: да
Треклист:
01. Mondscheinsonate - Round About Midnight [06:06]
02. Samba De Angry [03:45]
03. Beautiful Love [06:34]
04. Air On A 'G'-String [02:32]
05. Malagueсa [04:48]
06. Blue Sky [03:48]
07. Make The Man Love You [02:15]
08. Inquietaзгo [03:12]
09. My Man Is Gone [03:44]
10. Laurindos [02:34]
Personnel:
Ray Brown - bass
Laurindo Almeida - guitarRecorded at Tonstudio Bauer, Ludwigsburg, Germany in 1981.
 
Лог создания рипа
EAC extraction logfile from 3. August 2008, 9:56 for CD
Ray Brown & Laurindo Almeida / Moonlight Serenade
Used drive : LITE-ON LTR-52246S Adapter: 1 ID: 0
Read mode : Secure with NO C2, accurate stream, disable cache
Read offset correction : 6
Overread into Lead-In and Lead-Out : No
Used output format : Internal WAV Routines
44.100 Hz; 16 Bit; Stereo
Other options :
Fill up missing offset samples with silence : Yes
Delete leading and trailing silent blocks : No
Installed external ASPI interface
Range status and errors
Selected range
Filename J:\MMT\Ray Brown & Laurindo Almeida - Moonlight Serenade.wav
Peak level 45.2 %
Range quality 100.0 %
CRC 28D8E90A
Copy OK
No errors occured
End of status report
 
Содержание индексной карты (.CUE)
REM GENRE Jazz
REM DATE 1981
REM DISCID 9509380A
REM COMMENT "ExactAudioCopy v0.95b4"
PERFORMER "Ray Brown & Laurindo Almeida"
TITLE "Moonlight Serenade"
FILE "Ray Brown & Laurindo Almeida - Moonlight Serenade.wav" WAVE
TRACK 01 AUDIO
TITLE "Mondscheinsonate + Round About Midnight"
PERFORMER "Ray Brown & Laurindo Almeida"
INDEX 01 00:00:00
TRACK 02 AUDIO
TITLE "Samba De Angry"
PERFORMER "Ray Brown & Laurindo Almeida"
INDEX 00 06:04:74
INDEX 01 06:06:62
TRACK 03 AUDIO
TITLE "Beautiful Love"
PERFORMER "Ray Brown & Laurindo Almeida"
INDEX 00 09:50:05
INDEX 01 09:51:62
TRACK 04 AUDIO
TITLE "Air On A 'G'-String"
PERFORMER "Ray Brown & Laurindo Almeida"
INDEX 00 16:24:03
INDEX 01 16:25:62
TRACK 05 AUDIO
TITLE "Malagueсa"
PERFORMER "Ray Brown & Laurindo Almeida"
INDEX 00 18:56:57
INDEX 01 18:58:62
TRACK 06 AUDIO
TITLE "Blue Sky"
PERFORMER "Ray Brown & Laurindo Almeida"
INDEX 00 23:45:05
INDEX 01 23:46:62
TRACK 07 AUDIO
TITLE "Make The Man Love You"
PERFORMER "Ray Brown & Laurindo Almeida"
INDEX 00 27:33:00
INDEX 01 27:34:62
TRACK 08 AUDIO
TITLE "Inquietaзгo"
PERFORMER "Ray Brown & Laurindo Almeida"
INDEX 00 29:48:05
INDEX 01 29:49:62
TRACK 09 AUDIO
TITLE "My Man Is Gone"
PERFORMER "Ray Brown & Laurindo Almeida"
INDEX 00 33:00:02
INDEX 01 33:01:62
TRACK 10 AUDIO
TITLE "Laurindos"
PERFORMER "Ray Brown & Laurindo Almeida"
INDEX 00 36:43:73
INDEX 01 36:45:62
Any questions - support@pro-jazz.com. Есть вопросы - support@pro-jazz.com
10:50
195
Нет комментариев. Ваш будет первым!