Поиск

(Bop, Latin Jazz, World Fusion) Terry Gibbs - The Latin Connection (w/ Frank Morgan, Tito Puente) - 1986, APE (image+.cue) lossless

(Bop, Latin Jazz, World Fusion) Terry Gibbs - The Latin Connection (w/ Frank Morgan, Tito Puente) - 1986, APE (image+.cue) lossless
Треклист:
Terry Gibbs - The Latin Connection
Жанр: Bop, Latin Jazz, World Fusion
Страна-производитель диска: США
Год издания диска: 1996
Издатель (лейбл): Contemporary
Номер по каталогу: CCD-14022-2
Аудио кодек: APE (*.ape)
Тип рипа: image+.cue
Битрейт аудио: lossless
Продолжительность: 44:57
Источник (релизер): dreadbull (hqshare)
Наличие сканов в содержимом раздачи: да
Треклист:
01. Scrapple from the Apple (Parker)
02. For Keeps (Gibbs)
03. Groovin' High (Gillespie)
04. Chelsea Bridge (Strayhorn)
05. Sing Sing Sing (Prima)
06. Kick Those Feet (Gibbs)
07. Good Bait (Dameron-Basie)
08. Flamingo (Grouya-Anderson)
09. Sweet Young Song of Love (Gibbs-Gladstone)
Состав:
Terry Gibbs - vibes
Frank Morgan - alto saxophone
Sonny Bravo - piano
Bobby Rodriguez - bass
Tito Puente - timbales (#1,5,6);
Orestes Vilato - timbales (#2-4,7-9)
Johnny Rodriguez - bongos, percussion
Jose Madera - congas, percussion
Recorded on May 9-10, 1986.
 
Лог создания рипа
EAC extraction logfile from 11. January 2011, 18:28 for CD
Terry Gibbs / The Latin Connection
Used drive : ASUS DRW-22B2L Adapter: 0 ID: 1
Read mode : Secure with NO C2, accurate stream, disable cache
Read offset correction : 6
Overread into Lead-In and Lead-Out : No
Used output format : Internal WAV Routines
44.100 Hz; 16 Bit; Stereo
Other options :
Fill up missing offset samples with silence : Yes
Delete leading and trailing silent blocks : No
Installed external ASPI interface
Range status and errors
Selected range
Filename D:\Donkey Files\Terry Gibbs - The Latin Connection (1986, Contemporary) [eac-ape-scans] byDrBull\CDImage.wav
Peak level 100.0 %
Range quality 100.0 %
CRC E31C9043
Copy OK
No errors occured
End of status report
 
Содержание индексной карты (.CUE)
PERFORMER "Terry Gibbs"
TITLE "The Latin Connection"
FILE "Terry Gibbs - The Latin Connection.wav" WAVE
TRACK 01 AUDIO
TITLE "Scrapple from the Apple"
PERFORMER "Terry Gibbs"
INDEX 01 00:00:00
TRACK 02 AUDIO
TITLE "For Keeps"
PERFORMER "Terry Gibbs"
INDEX 00 05:17:28
INDEX 01 05:20:73
TRACK 03 AUDIO
TITLE "Groovin' High"
PERFORMER "Terry Gibbs"
INDEX 00 09:56:73
INDEX 01 09:58:40
TRACK 04 AUDIO
TITLE "Chelsea Bridge"
PERFORMER "Terry Gibbs"
INDEX 00 14:57:70
INDEX 01 14:59:48
TRACK 05 AUDIO
TITLE "Sing Sing Sing"
PERFORMER "Terry Gibbs"
INDEX 00 19:20:18
INDEX 01 19:21:28
TRACK 06 AUDIO
TITLE "Kick Those Feet"
PERFORMER "Terry Gibbs"
INDEX 00 23:51:68
INDEX 01 23:54:33
TRACK 07 AUDIO
TITLE "Good Bait"
PERFORMER "Terry Gibbs"
INDEX 00 29:04:10
INDEX 01 29:05:30
TRACK 08 AUDIO
TITLE "Flamingo"
PERFORMER "Terry Gibbs"
INDEX 00 34:30:28
INDEX 01 34:31:65
TRACK 09 AUDIO
TITLE "Sweet Young Song of Love"
PERFORMER "Terry Gibbs"
INDEX 00 39:12:65
INDEX 01 39:13:48
 
Review by Scott Yanow
Vibraphonist Terry Gibbs sounds fine on this Latin jazz date, which also includes altoist Frank Morgan, pianist Sonny Bravo, bassist Bobby Rodriguez and three percussionists, including Tito Puente playing timbales on three of the nine numbers. Most of the tunes are bop and swing standards (such as"Scrapple From the Apple," "Groovin' High," "Good Bait" and "Sing, Sing, Sing") and have excellent spots for Gibbs, Morgan and the percussion section. A fine date.
20:47
622
Нет комментариев. Ваш будет первым!