Поиск

(Bop, Latin Jazz, Hard Bop) Steve Turre - Steve Turre - 1997, FLAC (image+.cue), lossless

(Bop, Latin Jazz, Hard Bop) Steve Turre - Steve Turre - 1997, FLAC (image+.cue), lossless
Треклист:
Steve Turre - Steve Turre
Жанр: Bop, Latin Jazz, Hard Bop
Год выпуска диска: 1997
Производитель диска: Verve USA
Аудио кодек: FLAC
Тип рипа: image+.cue
Битрейт аудио: lossless
Продолжительность: 96:02
Трэклист:
1. In a Sentimental Mood 8:26
2. The Emperor 12:47
3. Let It Go 8:01
4. Ayer Lo Vi Llorar 5:42
5. Coastin' With Bobby 8:42
6. Steve's Blues 6:37
7. Inocencia 5:43
8. Mongo 'n' McCoy 10:29
Состав:
Steve Turre Trombone, Arranger, Shells
Stephen Scott Piano
Randy Brecker Trumpet, Flugelhorn
Stefon Harris Gong, Marimba, Balafon, Vibraphone
J.J. Johnson Trombone
Robin Eubanks Trombone, Shells
Regina Carter Violin
Cassandra Wilson Vocals
Alfredo "Chocolate" Armenteros Trumpet
Jimmy Bosch Trombone, Shells
Milton Cardona Conga, Shakere
Kimati Dinizulu Djembe, African Drums
Akua Dixon Cello, Conductor
Jon Faddis Trumpet, Flugelhorn
Rob Farrell Assistant Engineer
Andy Gonzalez Bass
Frank Lacy Trombone, Shells
Ron Lawrence Viola
Victor Lewis Drums
Romero Lubambo Guitar
Manny Oquendo Percussion, Bongos, Timbales, Cowbell, Guiro
Graciela Perez Vocals
Portinho Drums
Douglas Purviance Trombone, Trombone (Bass), Shells
Willie Rodriguez Piano
Mongo Santamaria Conga
Britt Woodman Trombone
Альбом отличный!!!
На трекере есть рип с пиратки. Предлагаю рип с оригинального диска
 
EAC Log
Exact Audio Copy V0.99 prebeta 5 from 4. May 2009
EAC extraction logfile from 8. September 2009, 20:29
Steve Turre / Steve Turre
Used drive : Optiarc DVD RW AD-7543A Adapter: 2 ID: 0
Read mode : Secure
Utilize accurate stream : Yes
Defeat audio cache : Yes
Make use of C2 pointers : No
Read offset correction : 48
Overread into Lead-In and Lead-Out : No
Fill up missing offset samples with silence : Yes
Delete leading and trailing silent blocks : No
Null samples used in CRC calculations : Yes
Used interface : Native Win32 interface for Win NT & 2000
Used output format : Internal WAV Routines
Sample format : 44.100 Hz; 16 Bit; Stereo
TOC of the extracted CD
Track | Start | Length | Start sector | End sector
---------------------------------------------------------
1 | 0:00.00 | 8:26.27 | 0 | 37976
2 | 8:26.27 | 12:47.35 | 37977 | 95536
3 | 21:13.62 | 8:01.48 | 95537 | 131659
4 | 29:15.35 | 5:42.32 | 131660 | 157341
5 | 34:57.67 | 8:42.40 | 157342 | 196531
6 | 43:40.32 | 6:38.05 | 196532 | 226386
7 | 50:18.37 | 5:43.48 | 226387 | 252159
8 | 56:02.10 | 10:29.57 | 252160 | 299391
Range status and errors
Selected range
Filename Z:\home\igo\eac\CDImage.wav
Peak level 100.0 %
Range quality 100.0 %
Copy CRC 80A4A132
Copy OK
No errors occurred
AccurateRip summary
Track 1 accurately ripped (confidence 9) [C16CD87B]
Track 2 accurately ripped (confidence 8) [BABD5F63]
Track 3 accurately ripped (confidence 8) [15303CEE]
Track 4 accurately ripped (confidence 7) [4249AF3B]
Track 5 accurately ripped (confidence 8) [364C897F]
Track 6 accurately ripped (confidence 8) [0F33D65A]
Track 7 accurately ripped (confidence 8) [6518FBEF]
Track 8 accurately ripped (confidence 6) [D195E917]
All tracks accurately ripped
End of status report
!!! DownBeat (Самый авторитетный джазовый журнал, 13 номеров)[PDF] Добавлен сентябрь!!!
08:53
280
Нет комментариев. Ваш будет первым!