Поиск

(Bop, Hard Bop, Post-Bop) [CD] VA - Birds & Monks (Art Pepper, John Klemmer, Johnny Griffin, Joe Farrell, Joe Henderson, Harold Land) - 1978 (1995), FLAC (tracks+.cue), lossless

(Bop, Hard Bop, Post-Bop) [CD] VA - Birds & Monks (Art Pepper, John Klemmer, Johnny Griffin, Joe Farrell, Joe Henderson, Harold Land) - 1978 (1995), FLAC (tracks+.cue), lossless
Треклист:
VA - Birds & Monks
Жанр: Bop, Hard Bop, Post-Bop
Носитель: CD
Страна-производитель диска (релиза): США
Год издания: 1995
Издатель (лейбл): Galaxy/Fantasy
Номер по каталогу: GCD-95002-2
Аудиокодек: FLAC (*.flac)
Тип рипа: tracks+.cue
Битрейт аудио: lossless
Продолжительность: 73:15
Источник (релизер): subix5
Наличие сканов в содержимом раздачи: сетевые
Треклист:
01. Johnny Griffin - Billie's Bounce (take 2) (5:23)
02. Art Pepper - Yardbird Suite (take 1) (5:16)
03. Harold Land - Bloomdido (take 3) (8:01)
04. Joe Farrell - Confirmation (take 2) (5:50)
05. John Klemmer - 'Round Midnight (take 2) (8:53)
06. Joe Henderson - Relaxin' at Camarillo (take 2) (8:29)
07. Johnny Griffin - Billie's Bounce (take 1) (5:00)
08. Art Pepper - Yardbird Suite (take 2B) (4:17)
09. Harold Land - Bloomdido (take 2) (6:37)
10. Joe Farrell - Confirmation (take 1) (6:23)
11. John Klemmer - 'Round Midnight (take 1) (9:06)
Состав:
Art Pepper - alto saxophone
John Klemmer, Johnny Griffin, Joe Farrell, Joe Henderson, Harold Land - tenor saxophone
with
Stanley Cowell - piano
Cecil McBee (#1,2,7,8), John Heard (#3-6,9-11) - bass
Roy Haynes - drums
Recorded at Fantasy Studios, Berkeley, CA on December 1-5, 1978.
 
Лог создания рипа
Exact Audio Copy V1.3 from 2. September 2016
EAC extraction logfile from 3. March 2017, 19:36
Various Artists / Birds & Monks
Used drive : PLDS DVD+-RW DU-8A3S Adapter: 1 ID: 0
Read mode : Secure
Utilize accurate stream : Yes
Defeat audio cache : Yes
Make use of C2 pointers : No
Read offset correction : 6
Overread into Lead-In and Lead-Out : No
Fill up missing offset samples with silence : Yes
Delete leading and trailing silent blocks : No
Null samples used in CRC calculations : Yes
Used interface : Native Win32 interface for Win NT & 2000
Gap handling : Appended to previous track
Used output format : User Defined Encoder
Selected bitrate : 1024 kBit/s
Quality : High
Add ID3 tag : No
Command line compressor : Z:\home\todd\Downloads\flac-1.3.2-win\win32\flac.exe
Additional command line options : -8 -V -T "ARTIST=%artist%" -T "TITLE=%title%" -T "ALBUM=%albumtitle%" -T "DATE=%year%" -T "TRACKNUMBER=%tracknr%" -T "GENRE=%genre%" -T "PERFORMER=%albuminterpret%" -T "COMPOSER=%composer%" %haslyrics%--tag-from-file=LYRICS="%lyricsfile%"%haslyrics% -T "ALBUMARTIST=%albumartist%" -T "DISCNUMBER=%cdnumber%" -T "TOTALDISCS=%totalcds%" -T "TOTALTRACKS=%numtracks%" -T "COMMENT=%comment%" %source% -o %dest%
TOC of the extracted CD
Track | Start | Length | Start sector | End sector
---------------------------------------------------------
1 | 0:00.00 | 5:23.30 | 0 | 24254
2 | 5:23.30 | 5:15.70 | 24255 | 47949
3 | 10:39.25 | 8:00.45 | 47950 | 83994
4 | 18:39.70 | 5:50.30 | 83995 | 110274
5 | 24:30.25 | 8:52.52 | 110275 | 150226
6 | 33:23.02 | 8:29.35 | 150227 | 188436
7 | 41:52.37 | 4:59.73 | 188437 | 210934
8 | 46:52.35 | 4:17.30 | 210935 | 230239
9 | 51:09.65 | 6:37.10 | 230240 | 260024
10 | 57:47.00 | 6:22.42 | 260025 | 288716
11 | 64:09.42 | 9:06.15 | 288717 | 329681
Track 1
Filename C:\Pepper, Klemmer, Griffin, Farrell, Henderson, Land - Birds & Monks (1995) {GCD-95002-2}[EAC-FLAC]\01 Johnny Griffin - Billie's Bounce.wav
Pre-gap length 0:00:02.00
Peak level 100.0 %
Extraction speed 3.1 X
Track quality 100.0 %
Test CRC F0C27D0F
Copy CRC F0C27D0F
Accurately ripped (confidence 4) [CEC83189] (AR v2)
Copy OK
Track 2
Filename C:\Pepper, Klemmer, Griffin, Farrell, Henderson, Land - Birds & Monks (1995) {GCD-95002-2}[EAC-FLAC]\02 Art Pepper - Yardbird Suite.wav
Peak level 100.0 %
Extraction speed 3.5 X
Track quality 100.0 %
Test CRC E35E7A7F
Copy CRC E35E7A7F
Accurately ripped (confidence 4) [0003896C] (AR v2)
Copy OK
Track 3
Filename C:\Pepper, Klemmer, Griffin, Farrell, Henderson, Land - Birds & Monks (1995) {GCD-95002-2}[EAC-FLAC]\03 Harold Land - Bloomdido.wav
Peak level 100.0 %
Extraction speed 4.0 X
Track quality 100.0 %
Test CRC FA5DB32F
Copy CRC FA5DB32F
Accurately ripped (confidence 4) [6D838C29] (AR v2)
Copy OK
Track 4
Filename C:\Pepper, Klemmer, Griffin, Farrell, Henderson, Land - Birds & Monks (1995) {GCD-95002-2}[EAC-FLAC]\04 Joe Farrell - Confirmation.wav
Pre-gap length 0:00:00.06
Peak level 100.0 %
Extraction speed 4.4 X
Track quality 100.0 %
Test CRC 5E2CC1A1
Copy CRC 5E2CC1A1
Accurately ripped (confidence 4) [A7544C35] (AR v2)
Copy OK
Track 5
Filename C:\Pepper, Klemmer, Griffin, Farrell, Henderson, Land - Birds & Monks (1995) {GCD-95002-2}[EAC-FLAC]\05 John Klemmer - Round Midnight.wav
Peak level 99.9 %
Extraction speed 4.9 X
Track quality 100.0 %
Test CRC E55CB79D
Copy CRC E55CB79D
Accurately ripped (confidence 4) [9C802498] (AR v2)
Copy OK
Track 6
Filename C:\Pepper, Klemmer, Griffin, Farrell, Henderson, Land - Birds & Monks (1995) {GCD-95002-2}[EAC-FLAC]\06 Joe Henderson - Relaxin' At Camarillo.wav
Peak level 100.0 %
Extraction speed 5.3 X
Track quality 100.0 %
Test CRC 667213BC
Copy CRC 667213BC
Accurately ripped (confidence 4) [E7D2F01F] (AR v2)
Copy OK
Track 7
Filename C:\Pepper, Klemmer, Griffin, Farrell, Henderson, Land - Birds & Monks (1995) {GCD-95002-2}[EAC-FLAC]\07 Johnny Griffin - Billie's Bounce (Alt. Take).wav
Pre-gap length 0:00:00.13
Peak level 99.9 %
Extraction speed 5.4 X
Track quality 100.0 %
Test CRC BC7E7A55
Copy CRC BC7E7A55
Accurately ripped (confidence 4) [253170B9] (AR v2)
Copy OK
Track 8
Filename C:\Pepper, Klemmer, Griffin, Farrell, Henderson, Land - Birds & Monks (1995) {GCD-95002-2}[EAC-FLAC]\08 Art Pepper - Yardbird Suite (Alt. Take).wav
Pre-gap length 0:00:00.13
Peak level 99.8 %
Extraction speed 5.5 X
Track quality 100.0 %
Test CRC 8C879874
Copy CRC 8C879874
Accurately ripped (confidence 4) [E9FD0FEB] (AR v2)
Copy OK
Track 9
Filename C:\Pepper, Klemmer, Griffin, Farrell, Henderson, Land - Birds & Monks (1995) {GCD-95002-2}[EAC-FLAC]\09 Harold Land - Bloomdido (Alt. Take).wav
Pre-gap length 0:00:00.24
Peak level 100.0 %
Extraction speed 6.0 X
Track quality 100.0 %
Test CRC A46937F8
Copy CRC A46937F8
Accurately ripped (confidence 4) [95EF1BB6] (AR v2)
Copy OK
Track 10
Filename C:\Pepper, Klemmer, Griffin, Farrell, Henderson, Land - Birds & Monks (1995) {GCD-95002-2}[EAC-FLAC]\10 Joe Farrell - Confirmation (Alt. Take).wav
Pre-gap length 0:00:00.57
Peak level 100.0 %
Extraction speed 6.2 X
Track quality 100.0 %
Test CRC 5F62FEF0
Copy CRC 5F62FEF0
Accurately ripped (confidence 4) [494EF778] (AR v2)
Copy OK
Track 11
Filename C:\Pepper, Klemmer, Griffin, Farrell, Henderson, Land - Birds & Monks (1995) {GCD-95002-2}[EAC-FLAC]\11 John Klemmer - Round Midnight (Alt. Take).wav
Peak level 100.0 %
Extraction speed 6.6 X
Track quality 100.0 %
Test CRC A2B5C025
Copy CRC A2B5C025
Accurately ripped (confidence 4) [8D24DF43] (AR v2)
Copy OK
All tracks accurately ripped
No errors occurred
End of status report
==== Log checksum B137BB26E6BB99DBEE01D72F4CA495F2A68E9A0AE2E8ED77A66A79F73F785EB1 ====
 
Содержание индексной карты (.CUE)
REM GENRE Jazz
REM DATE 1978
REM DISCID 7E112B0B
REM COMMENT "ExactAudioCopy v1.3"
PERFORMER "Various"
TITLE "Birds & Monks"
FILE "01 - Johnny Griffin - Billie's Bounce (take 2).wav" WAVE
TRACK 01 AUDIO
TITLE "Billie's Bounce (take 2)"
PERFORMER "Johnny Griffin"
INDEX 01 00:00:00
FILE "02 - Art Pepper - Yardbird Suite (take 1).wav" WAVE
TRACK 02 AUDIO
TITLE "Yardbird Suite (take 1)"
PERFORMER "Art Pepper"
INDEX 01 00:00:00
FILE "03 - Harold Land - Bloomdido (take 3).wav" WAVE
TRACK 03 AUDIO
TITLE "Bloomdido (take 3)"
PERFORMER "Harold Land"
INDEX 01 00:00:00
TRACK 04 AUDIO
TITLE "Confirmation (take 2)"
PERFORMER "Joe Farrell"
INDEX 00 08:00:40
FILE "04 - Joe Farrell - Confirmation (take 2).wav" WAVE
INDEX 01 00:00:00
FILE "05 - John Klemmer - 'Round Midnight (take 2).wav" WAVE
TRACK 05 AUDIO
TITLE "'Round Midnight (take 2)"
PERFORMER "John Klemmer"
INDEX 01 00:00:00
FILE "06 - Joe Henderson - Relaxin' at Camarillo (take 2).wav" WAVE
TRACK 06 AUDIO
TITLE "Relaxin' at Camarillo (take 2)"
PERFORMER "Joe Henderson"
INDEX 01 00:00:00
TRACK 07 AUDIO
TITLE "Billie's Bounce (take 1)"
PERFORMER "Johnny Griffin"
INDEX 00 08:29:25
FILE "07 - Johnny Griffin - Billie's Bounce (take 1).wav" WAVE
INDEX 01 00:00:00
TRACK 08 AUDIO
TITLE "Yardbird Suite (take 2B)"
PERFORMER "Art Pepper"
INDEX 00 04:59:63
FILE "08 - Art Pepper - Yardbird Suite (take 2B).wav" WAVE
INDEX 01 00:00:00
TRACK 09 AUDIO
TITLE "Bloomdido (take 2)"
PERFORMER "Harold Land"
INDEX 00 04:17:12
FILE "09 - Harold Land - Bloomdido (take 2).wav" WAVE
INDEX 01 00:00:00
TRACK 10 AUDIO
TITLE "Confirmation (take 1)"
PERFORMER "Joe Farrell"
INDEX 00 06:36:42
FILE "10 - Joe Farrell - Confirmation (take 1).wav" WAVE
INDEX 01 00:00:00
FILE "11 - John Klemmer - 'Round Midnight (take 1).wav" WAVE
TRACK 11 AUDIO
TITLE "'Round Midnight (take 1)"
PERFORMER "John Klemmer"
INDEX 01 00:00:00
 
Отчет CUETools
[CUETools log; Date: 04.03.2017 21:42:05; Version: 2.1.5]
[CTDB TOCID: iTI793qfYbl7TKYE_0jaqeMThEo-] found.
Track | CTDB Status
1 | (2/2) Accurately ripped
2 | (2/2) Accurately ripped
3 | (2/2) Accurately ripped
4 | (2/2) Accurately ripped
5 | (2/2) Accurately ripped
6 | (2/2) Accurately ripped
7 | (2/2) Accurately ripped
8 | (2/2) Accurately ripped
9 | (2/2) Accurately ripped
10 | (2/2) Accurately ripped
11 | (2/2) Accurately ripped
[AccurateRip ID: 001d5e82-01003a22-7e112b0b] found.
Track [ CRC | V2 ] Status
01 [91cd190c|cec83189] (0+4/4) Accurately ripped
02 [99f1c2dd|0003896c] (0+4/4) Accurately ripped
03 [965c9c8b|6d838c29] (0+4/4) Accurately ripped
04 [4895b3b3|a7544c35] (0+4/4) Accurately ripped
05 [768cd358|9c802498] (0+4/4) Accurately ripped
06 [c5a10ed9|e7d2f01f] (0+4/4) Accurately ripped
07 [80ed495c|253170b9] (0+4/4) Accurately ripped
08 [ff5a8ed8|e9fd0feb] (0+4/4) Accurately ripped
09 [4fdfb7f9|95ef1bb6] (0+4/4) Accurately ripped
10 [f034b3a2|494ef778] (0+4/4) Accurately ripped
11 [bec242e3|8d24df43] (0+4/4) Accurately ripped
Track Peak [ CRC32 ] [W/O NULL] [ LOG ]
-- 100,0 [60461B9A] [440060D0]
01 100,0 [F0C27D0F] [41789684] CRC32
02 100,0 [E35E7A7F] [FF2AEC9E] CRC32
03 100,0 [FA5DB32F] [9A59BFDE] CRC32
04 100,0 [5E2CC1A1] [4BCB8370] CRC32
05 99,9 [E55CB79D] [12136102] CRC32
06 100,0 [667213BC] [CAE4308E] CRC32
07 99,9 [BC7E7A55] [B5AB4FF5] CRC32
08 99,8 [8C879874] [43040690] CRC32
09 100,0 [A46937F8] [FEABD94C] CRC32
10 100,0 [5F62FEF0] [4162E6EC] CRC32
11 100,0 [A2B5C025] [D5CCA686] CRC32
 
AllMusic Review by Scott Yanow
Birds & Monks features five tenors: Johnny Griffin, Harold Land, Joe Farrell, John Klemmer, and Joe Henderson -- and altoist Art Pepper -- playing one song apiece (five tunes by Charlie Parker along with Thelonious Monk's "'Round Midnight"). Pianist Stanley Cowell provides accompaniment (but sits out on the Henderson cut); either Cecil McBee or John Heard are on bass, and Roy Haynes plays the skins. Each of the saxophonists plays quite well, with John Klemmer's version of "'Round Midnight" being the only ballad. This release is easily recommended for bop fanatics.
Приватный:
Нет (DHT включён)
Размер:
453.29 Мб (475,313,672 байт) » файлов: 18
Участники:
0 раздают, 0 качают (0 участников всего)
Внешние участники:
1 раздают, 0 качают (1 участников всего) [ Обновить ]
For power users only: no seeders - write personal message to M0p94ok. Для power user: нет сидеров - пишите в личку M0p94ok.
04:00
163
Нет комментариев. Ваш будет первым!