Поиск

(Bop, Hard Bop, Mainstream Jazz) The Amazing Benny Bailey - Mirrors {1971, Remastered} - 2009, FLAC (tracks+.cue), lossless

(Bop, Hard Bop, Mainstream Jazz) The Amazing Benny Bailey - Mirrors {1971, Remastered} - 2009, FLAC (tracks+.cue), lossless
Треклист:
•The Amazing Benny Bailey - Mirrors {1971, Remastered}•
Жанр: Bop, Hard Bop, Mainstream Jazz
Год издания: 2009
Издатель (лейбл): Earward
Номер по каталогу: RW132 CD
Аудиокодек: FLAC (*.flac)
Тип рипа: tracks+.cue
Битрейт аудио: lossless
Продолжительность: 00:37:57
Источник (релизер): philosophy
Наличие сканов в содержимом раздачи: да
Треклист:
01.Mirrors [06:50]
02.Effluves [05:50]
03.Flunkeyana [05:42]
04.Subumbra [06:43]
05.Everything Happens To Me [05:21]
06.At Ronnie’s [07:28]
Personnel:
Benny Bailey (trumpet, flugelhorn)
Tony Coe (tenor sax and clarinet)
Sahib Shihab (baritone sax and flute)
Francy Boland (piano)
Jean Warland (bass)
Tony Inzalaco (drums)Recorded at Cornet Studios, Cologne, 11th September 1971.
 
Лог создания рипа
Exact Audio Copy V1.0 beta 3 from 29. August 2011
EAC extraction logfile from 25. March 2012, 1:33
Benny Bailey / Mirrors
Used drive  : ASUS    DRW-20B1LT   Adapter: 2  ID: 0
Read mode               : Secure
Utilize accurate stream : Yes
Defeat audio cache      : Yes
Make use of C2 pointers : No
Read offset correction                      : 6
Overread into Lead-In and Lead-Out          : No
Fill up missing offset samples with silence : Yes
Delete leading and trailing silent blocks   : No
Null samples used in CRC calculations       : Yes
Used interface                              : Native Win32 interface for Win NT & 2000
Gap handling                                : Appended to previous track
Used output format              : User Defined Encoder
Selected bitrate                : 1024 kBit/s
Quality                         : High
Add ID3 tag                     : No
Command line compressor         : C:\Program Files\FLAC\flac.exe
Additional command line options : -8 -V -T "ARTIST=%artist%" -T "TITLE=%title%" -T "ALBUM=%albumtitle%" -T "DATE=%year%" -T "TRACKNUMBER=%tracknr%" -T "GENRE=%genre%" -T "PERFORMER=%albuminterpret%" -T "COMPOSER=%composer%" %haslyrics%--tag-from-file=LYRICS="%lyricsfile%"%haslyrics% -T "ALBUMARTIST=%albumartist%" -T "DISCNUMBER=%cdnumber%" -T "TOTALDISCS=%totalcds%" -T "TOTALTRACKS=%numtracks%" -T "COMMENT=%comment%" %source% -o %dest%
TOC of the extracted CD
     Track |   Start  |  Length  | Start sector | End sector
    ---------------------------------------------------------
        1  |  0:00.00 |  6:50.56 |         0    |    30805
        2  |  6:50.56 |  5:50.45 |     30806    |    57100
        3  | 12:41.26 |  5:42.40 |     57101    |    82790
        4  | 18:23.66 |  6:43.59 |     82791    |   113074
        5  | 25:07.50 |  5:21.24 |    113075    |   137173
        6  | 30:28.74 |  7:28.65 |    137174    |   170838
Track  1
     Filename C:\Users\Jazz\Downloads\Benny Bailey - Mirrors (1971) FLAC\01 - Mirrors.wav
     Pre-gap length  0:00:02.00
     Peak level 96.8 %
     Extraction speed 3.7 X
     Track quality 100.0 %
     Test CRC 1856C6EE
     Copy CRC 1856C6EE
     Track not present in AccurateRip database
     Copy OK
Track  2
     Filename C:\Users\Jazz\Downloads\Benny Bailey - Mirrors (1971) FLAC\02 - Effluves.wav
     Peak level 96.8 %
     Extraction speed 3.7 X
     Track quality 99.9 %
     Test CRC D4073E2D
     Copy CRC D4073E2D
     Track not present in AccurateRip database
     Copy OK
Track  3
     Filename C:\Users\Jazz\Downloads\Benny Bailey - Mirrors (1971) FLAC\03 - Flunkeyana.wav
     Peak level 96.8 %
     Extraction speed 4.7 X
     Track quality 100.0 %
     Test CRC BFB9DF75
     Copy CRC BFB9DF75
     Track not present in AccurateRip database
     Copy OK
Track  4
     Filename C:\Users\Jazz\Downloads\Benny Bailey - Mirrors (1971) FLAC\04 - Subumbra.wav
     Peak level 96.8 %
     Extraction speed 5.2 X
     Track quality 100.0 %
     Test CRC 87241F93
     Copy CRC 87241F93
     Track not present in AccurateRip database
     Copy OK
Track  5
     Filename C:\Users\Jazz\Downloads\Benny Bailey - Mirrors (1971) FLAC\05 - Everything Happens To Me.wav
     Peak level 96.8 %
     Extraction speed 5.4 X
     Track quality 100.0 %
     Test CRC 0628210D
     Copy CRC 0628210D
     Track not present in AccurateRip database
     Copy OK
Track  6
     Filename C:\Users\Jazz\Downloads\Benny Bailey - Mirrors (1971) FLAC\06 - At Ronnie’s.wav
     Peak level 96.8 %
     Extraction speed 5.3 X
     Track quality 99.9 %
     Test CRC E80DBE92
     Copy CRC E80DBE92
     Track not present in AccurateRip database
     Copy OK
None of the tracks are present in the AccurateRip database
No errors occurred
End of status report
---- CUETools DB Plugin V2.1.3
[CTDB TOCID: qGpDXDwtD_3m0PdCIOey.CLNQp8-] found, Submit result: already submitted
[d6b8fdf2] (1/1) Accurately ripped
==== Log checksum BCC3C6FBE098F8431C8AA8DB7B176595280601C081AC087DC023D7D355B42527 ====
 
 
Содержание индексной карты (.CUE)
REM GENRE Jazz
REM DATE 1971
REM DISCID 3B08E506
REM COMMENT "ExactAudioCopy v1.0b3"
FILE "01 - Mirrors.wav" WAVE
  TRACK 01 AUDIO
    FLAGS DCP
    INDEX 01 00:00:00
FILE "02 - Effluves.wav" WAVE
  TRACK 02 AUDIO
    FLAGS DCP
    INDEX 01 00:00:00
FILE "03 - Flunkeyana.wav" WAVE
  TRACK 03 AUDIO
    FLAGS DCP
    INDEX 01 00:00:00
FILE "04 - Subumbra.wav" WAVE
  TRACK 04 AUDIO
    FLAGS DCP
    INDEX 01 00:00:00
FILE "05 - Everything Happens To Me.wav" WAVE
  TRACK 05 AUDIO
    FLAGS DCP
    INDEX 01 00:00:00
FILE "06 - At RonnieТs.wav" WAVE
  TRACK 06 AUDIO
    FLAGS DCP
    INDEX 01 00:00:00
По всем вопросам пишите личное сообщение пользователю M0p94ok.
00:01
329
Нет комментариев. Ваш будет первым!