Вы используете незарегистрированную версию компонента "Вкладки"!

Поиск

(Bop, Hard Bop, fussion, reggae)Monty Alexander - Harlem-Kingston Express Live! - 2011, FLAC (tracks+.cue), lossless

(Bop, Hard Bop, fussion, reggae)Monty Alexander - Harlem-Kingston Express Live! - 2011, FLAC (tracks+.cue), lossless
Треклист:
Monty Alexander / Harlem-Kingston Express Live!
Жанр: Bop, Hard Bop, fussion, reggae
Страна-производитель диска: US
Год издания диска: 2011
Издатель (лейбл): Motema Music
Номер по каталогу: B004YQVEXS
Страна: jamaica
Аудиокодек: FLAC (*.flac)
Тип рипа: tracks+.cue
Битрейт аудио: lossless
Продолжительность: 56:46
Источник (релизер): wata
Наличие сканов в содержимом раздачи: нет
Треклист:
1. Strawberry Hill
2. High Heel Sneakers
3. King Tubby Meets the Rockers Uptown
4. Eleuthera
5. Sweet Georgia Brown
6. Freddie Freeloader (Riddim)
7. The Heathen
8. Compassion
9. Running Away
10. Day-O (Banana Boat Song)
11. No Woman No Cry
вторая часть http://rutracker.org/forum/viewtopic.php?t=4847126
 
Лог создания рипа
Exact Audio Copy V1.0 beta 2 from 29. April 2011
EAC extraction logfile from 6. July 2011, 17:08
Monty Alexander / Harlem-Kingston Express Live!
Used drive : PLEXTOR DVDR PX-716A Adapter: 3 ID: 0
Read mode : Secure
Utilize accurate stream : Yes
Defeat audio cache : Yes
Make use of C2 pointers : No
Read offset correction : 30
Overread into Lead-In and Lead-Out : No
Fill up missing offset samples with silence : Yes
Delete leading and trailing silent blocks : No
Null samples used in CRC calculations : Yes
Used interface : Native Win32 interface for Win NT & 2000
Gap handling : Appended to previous track
Used output format : User Defined Encoder
Selected bitrate : 1024 kBit/s
Quality : High
Add ID3 tag : No
Command line compressor : C:\Program Files\Exact Audio Copy\Flac\flac.exe
Additional command line options : -8 -V -T "ARTIST=%artist%" -T "TITLE=%title%" -T "ALBUM=%albumtitle%" -T "DATE=%year%" -T "TRACKNUMBER=%tracknr%" -T "GENRE=%genre%" -T "PERFORMER=%albuminterpret%" -T "COMPOSER=%composer%" %haslyrics%--tag-from-file=LYRICS
TOC of the extracted CD
Track | Start | Length | Start sector | End sector
---------------------------------------------------------
1 | 0:00.00 | 4:09.16 | 0 | 18690
2 | 4:09.16 | 4:02.67 | 18691 | 36907
3 | 8:12.08 | 6:02.31 | 36908 | 64088
4 | 14:14.39 | 5:56.70 | 64089 | 90858
5 | 20:11.34 | 5:08.60 | 90859 | 114018
6 | 25:20.19 | 2:07.57 | 114019 | 123600
7 | 27:28.01 | 4:56.68 | 123601 | 145868
8 | 32:24.69 | 5:03.21 | 145869 | 168614
9 | 37:28.15 | 6:46.71 | 168615 | 199135
10 | 44:15.11 | 5:24.39 | 199136 | 223474
11 | 49:39.50 | 7:06.04 | 223475 | 255428
Track 1
Filename C:\EAC\Monty Alexander - Kingston-Harlem Express Live! (2011) [FLAC]\01 - Strawberry Hill.wav
Pre-gap length 0:00:02.00
Peak level 99.2 %
Extraction speed 8.2 X
Track quality 100.0 %
Test CRC B3718E64
Copy CRC B3718E64
Track not present in AccurateRip database
Copy OK
Track 2
Filename C:\EAC\Monty Alexander - Kingston-Harlem Express Live! (2011) [FLAC]\02 - High Heel Sneakers.wav
Peak level 100.0 %
Extraction speed 8.9 X
Track quality 100.0 %
Test CRC 2F86D5C0
Copy CRC 2F86D5C0
Track not present in AccurateRip database
Copy OK
Track 3
Filename C:\EAC\Monty Alexander - Kingston-Harlem Express Live! (2011) [FLAC]\03 - King Tubby Meets The Rockers Uptown.wav
Peak level 97.5 %
Extraction speed 9.6 X
Track quality 100.0 %
Test CRC 90C02192
Copy CRC 90C02192
Track not present in AccurateRip database
Copy OK
Track 4
Filename C:\EAC\Monty Alexander - Kingston-Harlem Express Live! (2011) [FLAC]\04 - Eleuthera.wav
Peak level 97.7 %
Extraction speed 11.4 X
Track quality 100.0 %
Test CRC A11DF2B8
Copy CRC A11DF2B8
Track not present in AccurateRip database
Copy OK
Track 5
Filename C:\EAC\Monty Alexander - Kingston-Harlem Express Live! (2011) [FLAC]\05 - Sweet Georgia Brown.wav
Peak level 86.9 %
Extraction speed 9.2 X
Track quality 100.0 %
Test CRC BD996985
Copy CRC BD996985
Track not present in AccurateRip database
Copy OK
Track 6
Filename C:\EAC\Monty Alexander - Kingston-Harlem Express Live! (2011) [FLAC]\06 - Freddie Freeloader (Riddim).wav
Peak level 91.8 %
Extraction speed 12.2 X
Track quality 100.0 %
Test CRC AB789E8C
Copy CRC AB789E8C
Track not present in AccurateRip database
Copy OK
Track 7
Filename C:\EAC\Monty Alexander - Kingston-Harlem Express Live! (2011) [FLAC]\07 - The Heathen.wav
Peak level 99.9 %
Extraction speed 12.9 X
Track quality 100.0 %
Test CRC 9B6DF6DF
Copy CRC 9B6DF6DF
Track not present in AccurateRip database
Copy OK
Track 8
Filename C:\EAC\Monty Alexander - Kingston-Harlem Express Live! (2011) [FLAC]\08 - Compasssion.wav
Peak level 90.0 %
Extraction speed 13.2 X
Track quality 100.0 %
Test CRC BC640114
Copy CRC BC640114
Track not present in AccurateRip database
Copy OK
Track 9
Filename C:\EAC\Monty Alexander - Kingston-Harlem Express Live! (2011) [FLAC]\09 - Running Away.wav
Peak level 100.0 %
Extraction speed 14.8 X
Track quality 100.0 %
Test CRC 2A4013D1
Copy CRC 2A4013D1
Track not present in AccurateRip database
Copy OK
Track 10
Filename C:\EAC\Monty Alexander - Kingston-Harlem Express Live! (2011) [FLAC]\10 - Day-O (Banana Boat Song).wav
Peak level 100.0 %
Extraction speed 15.6 X
Track quality 100.0 %
Test CRC 819F39DC
Copy CRC 819F39DC
Track not present in AccurateRip database
Copy OK
Track 11
Filename C:\EAC\Monty Alexander - Kingston-Harlem Express Live! (2011) [FLAC]\11 - No Woman No Cry.wav
Peak level 97.9 %
Extraction speed 15.2 X
Track quality 100.0 %
Test CRC 0916CEE4
Copy CRC 0916CEE4
Track not present in AccurateRip database
Copy OK
None of the tracks are present in the AccurateRip database
No errors occurred
End of status report
==== Log checksum 7AA1E16A639EF9CCFA7771C316AE8A4521E45AA7C0D5B030F05BB44DB276E9E2 ====
 
Содержание индексной карты (.CUE)
REM GENRE Reggae
REM DATE 2011
REM DISCID 900D4D0B
REM COMMENT "ExactAudioCopy v1.0b2"
PERFORMER "Monty Alexander"
TITLE "Harlem-Kingston Express Live!"
FILE "01 - Strawberry Hill.wav" WAVE
TRACK 01 AUDIO
TITLE "Strawberry Hill"
PERFORMER "Monty Alexander"
ISRC US9331106701
FLAGS DCP
INDEX 01 00:00:00
FILE "02 - High Heel Sneakers.wav" WAVE
TRACK 02 AUDIO
TITLE "High Heel Sneakers"
PERFORMER "Monty Alexander"
ISRC US9331106702
FLAGS DCP
INDEX 01 00:00:00
FILE "03 - King Tubby Meets The Rockers Uptown.wav" WAVE
TRACK 03 AUDIO
TITLE "King Tubby Meets The Rockers Uptown"
PERFORMER "Monty Alexander"
ISRC US9331106703
FLAGS DCP
INDEX 01 00:00:00
FILE "04 - Eleuthera.wav" WAVE
TRACK 04 AUDIO
TITLE "Eleuthera"
PERFORMER "Monty Alexander"
ISRC US9331106704
FLAGS DCP
INDEX 01 00:00:00
FILE "05 - Sweet Georgia Brown.wav" WAVE
TRACK 05 AUDIO
TITLE "Sweet Georgia Brown"
PERFORMER "Monty Alexander"
ISRC US9331106705
FLAGS DCP
INDEX 01 00:00:00
FILE "06 - Freddie Freeloader (Riddim).wav" WAVE
TRACK 06 AUDIO
TITLE "Freddie Freeloader (Riddim)"
PERFORMER "Monty Alexander"
ISRC US9331106706
FLAGS DCP
INDEX 01 00:00:00
FILE "07 - The Heathen.wav" WAVE
TRACK 07 AUDIO
TITLE "The Heathen"
PERFORMER "Monty Alexander"
ISRC US9331106707
FLAGS DCP
INDEX 01 00:00:00
FILE "08 - Compasssion.wav" WAVE
TRACK 08 AUDIO
TITLE "Compasssion"
PERFORMER "Monty Alexander"
ISRC US9331106708
FLAGS DCP
INDEX 01 00:00:00
FILE "09 - Running Away.wav" WAVE
TRACK 09 AUDIO
TITLE "Running Away"
PERFORMER "Monty Alexander"
ISRC US9331106709
FLAGS DCP
INDEX 01 00:00:00
FILE "10 - Day-O (Banana Boat Song).wav" WAVE
TRACK 10 AUDIO
TITLE "Day-O (Banana Boat Song)"
PERFORMER "Monty Alexander"
ISRC US9331106710
FLAGS DCP
INDEX 01 00:00:00
FILE "11 - No Woman No Cry.wav" WAVE
TRACK 11 AUDIO
TITLE "No Woman No Cry"
PERFORMER "Monty Alexander"
ISRC US9331106711
FLAGS DCP
INDEX 01 00:00:00
Any questions - support@pro-jazz.com.
Есть вопросы - support@pro-jazz.com
23:29
272
Нет комментариев. Ваш будет первым!