Поиск

(Bop, Hard Bop) Duke Jordan - Blue Duke - 1983 (2007 K2 Japan Edition), FLAC (image+.cue), lossless

(Bop, Hard Bop) Duke Jordan - Blue Duke - 1983 (2007 K2 Japan Edition), FLAC (image+.cue), lossless
Треклист:
Duke Jordan - Blue Duke
Жанр: Bop, Hard Bop
Страна-производитель диска: Япония
Год издания: 2007
Издатель (лейбл): Baystate/BMG Japan
Номер по каталогу: BVCJ-37556 (82876-87551-2)
Страна: США
Аудиокодек: FLAC (*.flac)
Тип рипа: image+.cue
Битрейт аудио: lossless
Продолжительность: 48:15
Источник (релизер): диск из моей коллекции
Наличие сканов в содержимом раздачи: да
Треклист:
01. No Problem (Jordan) - 9:43
02. Holding Hands (Jordan) - 3:55
03. Ben Sugar Blues (Jordan) - 3:18
04. All the Things You Are (Kern-Hammerstein) - 6:03
05. C Jam Blues (Ellington) - 5:24
06. Jor-Du (Jordan) - 4:03
07. From Duke to Duke (Jordan) - 3:30
08. St. Louis Blues (Handy) - 7:32
09. The Theme (Jordan) - 4:46
Состав:
Duke Jordan - piano
Harry Emmery - bass
James Martin - drums
Recorded at Studio 44, Monster (Holland) on June 8-9, 1983.
 
Лог создания рипа
Exact Audio Copy V1.0 beta 3 from 29. August 2011
EAC extraction logfile from 18. March 2013, 1:08
Duke Jordan / Blue Duke
Used drive : ASUS DRW-24B1LT Adapter: 5 ID: 1
Read mode : Secure
Utilize accurate stream : Yes
Defeat audio cache : Yes
Make use of C2 pointers : No
Read offset correction : 6
Overread into Lead-In and Lead-Out : No
Fill up missing offset samples with silence : Yes
Delete leading and trailing silent blocks : No
Null samples used in CRC calculations : Yes
Used interface : Native Win32 interface for Win NT & 2000
Used output format : User Defined Encoder
Selected bitrate : 768 kBit/s
Quality : High
Add ID3 tag : No
Command line compressor : C:\Program Files\Exact Audio Copy\Flac\flac.exe
Additional command line options : -8 -V -T "ARTIST=%artist%" -T "TITLE=%title%" -T "ALBUM=%albumtitle%" -T "DATE=%year%" -T "TRACKNUMBER=%tracknr%" -T "TOTALTRACKS=%numtracks%" -T "GENRE=%genre%" -T "ALBUMARTIST=%albumartist%" -T "ALBUM ARTIST=%albumartist%" -T "COMMENT=EAC Secure Mode, Test & Copy, AccurateRip, FLAC -8" %source%
TOC of the extracted CD
Track | Start | Length | Start sector | End sector
---------------------------------------------------------
1 | 0:00.00 | 9:43.27 | 0 | 43751
2 | 9:43.27 | 3:55.05 | 43752 | 61381
3 | 13:38.32 | 3:18.20 | 61382 | 76251
4 | 16:56.52 | 6:02.65 | 76252 | 103466
5 | 22:59.42 | 5:24.23 | 103467 | 127789
6 | 28:23.65 | 4:03.12 | 127790 | 146026
7 | 32:27.02 | 3:29.55 | 146027 | 161756
8 | 35:56.57 | 7:31.73 | 161757 | 195654
9 | 43:28.55 | 4:46.12 | 195655 | 217116
Range status and errors
Selected range
Filename F:\audio\Duke Jordan - Blue Duke.wav
Peak level 100.0 %
Extraction speed 5.5 X
Range quality 100.0 %
Test CRC 393B0412
Copy CRC 393B0412
Copy OK
No errors occurred
AccurateRip summary
Track 1 cannot be verified as accurate (confidence 1) [F4818E1E], AccurateRip returned [B3219119] (AR v2)
Track 2 cannot be verified as accurate (confidence 1) [543F6BC5], AccurateRip returned [AF7756F4] (AR v2)
Track 3 cannot be verified as accurate (confidence 1) [233CD743], AccurateRip returned [BDAF6260] (AR v2)
Track 4 cannot be verified as accurate (confidence 1) [D3B332BF], AccurateRip returned [A405BE7E] (AR v2)
Track 5 cannot be verified as accurate (confidence 1) [DE2FD965], AccurateRip returned [5515ABAD] (AR v2)
Track 6 cannot be verified as accurate (confidence 1) [A127EFB7], AccurateRip returned [34750496] (AR v2)
Track 7 cannot be verified as accurate (confidence 1) [9042640F], AccurateRip returned [CBC05CEC] (AR v2)
Track 8 cannot be verified as accurate (confidence 1) [07D6192D], AccurateRip returned [82EA4BAD] (AR v2)
Track 9 cannot be verified as accurate (confidence 1) [C26973D1], AccurateRip returned [3217C476] (AR v2)
No tracks could be verified as accurate
You may have a different pressing from the one(s) in the database
End of status report
---- CUETools DB Plugin V2.1.3
[CTDB TOCID: I8Uj3ehnl9zauU5H_WwCVabLAh8-] disk not present in database, Submit result: I8Uj3ehnl9zauU5H_WwCVabLAh8- has been uploaded
==== Log checksum D594E315CDD825261E2899AC69D28901328376B7C442C2398E74D5A5E6436500 ====
 
Содержание индексной карты (.CUE)
REM GENRE Jazz
REM DATE 1983
REM DISCID 720B4E09
REM COMMENT "ExactAudioCopy v1.0b3"
PERFORMER "Duke Jordan"
TITLE "Blue Duke"
FILE "Duke Jordan - Blue Duke.wav" WAVE
TRACK 01 AUDIO
TITLE "No Problem"
PERFORMER "Duke Jordan"
INDEX 01 00:00:00
TRACK 02 AUDIO
TITLE "Holding Hands"
PERFORMER "Duke Jordan"
INDEX 00 09:39:57
INDEX 01 09:43:27
TRACK 03 AUDIO
TITLE "Ben Sugar Blues"
PERFORMER "Duke Jordan"
INDEX 00 13:34:57
INDEX 01 13:38:32
TRACK 04 AUDIO
TITLE "All the Things You Are"
PERFORMER "Duke Jordan"
INDEX 00 16:52:47
INDEX 01 16:56:52
TRACK 05 AUDIO
TITLE "C Jam Blues"
PERFORMER "Duke Jordan"
INDEX 00 22:56:00
INDEX 01 22:59:42
TRACK 06 AUDIO
TITLE "Jor-Du"
PERFORMER "Duke Jordan"
INDEX 00 28:20:05
INDEX 01 28:23:65
TRACK 07 AUDIO
TITLE "From Duke to Duke"
PERFORMER "Duke Jordan"
INDEX 00 32:22:60
INDEX 01 32:27:02
TRACK 08 AUDIO
TITLE "St. Louis Blues"
PERFORMER "Duke Jordan"
INDEX 00 35:52:57
INDEX 01 35:56:57
TRACK 09 AUDIO
TITLE "The Theme"
PERFORMER "Duke Jordan"
INDEX 00 43:24:57
INDEX 01 43:28:55
 
Review by Scott Yanow
Originally cut for the Japanese Baystate label and then later released by French RCA, this trio set by pianist Duke Jordan (with bassist Harry Memmery and drummer James Martin in Holland) differs from his usual recordings in putting an emphasis on blues, although not exclusively. Jordan performs six of his originals (including "No Problem," "Ben Sugar Blues," "Jordu" and "From Duke to Duke") plus "All the Things You Are," "C Jam Blues" and "St. Louis Blues." The classic bebop pianist's consistency holds up on this set (cut when he was 61), making the obscure LP worth searching for.
Приватный:
Нет (DHT включён)
Размер:
307.40 Мб (322,334,720 байт) » файлов: 12
Участники:
0 раздают, 0 качают (0 участников всего)
Внешние участники:
3 раздают, 1 качают (4 участников всего) [ Обновить ]
Никого нет на раздаче - пишите ЛС M0p94ok
No seeders - write PM to M0p94ok
17:52
21
Нет комментариев. Ваш будет первым!