Вы используете незарегистрированную версию компонента "Вкладки"!

Поиск

(Bop, Hard Bop) [CD] The Benny Bailey Quartet - Angel Eyes - 1995, FLAC (tracks+.cue), lossless

(Bop, Hard Bop) [CD] The Benny Bailey Quartet - Angel Eyes - 1995, FLAC (tracks+.cue), lossless
Треклист:
The Benny Bailey Quartet - Angel Eyes
Жанр: Bop, Hard Bop
Носитель: CD
Страна-производитель диска: Германия
Год издания: 1995
Издатель (лейбл): Laika Records
Номер по каталогу: 8695068
Аудиокодек: FLAC (*.flac)
Тип рипа: tracks+.cue
Битрейт аудио: lossless
Продолжительность: 69:35
Источник (релизер): smacito (what)
Наличие сканов в содержимом раздачи: нет
Треклист:
01. Will You Still Be Mine (8:25)
02. Angel Eyes (10:02)
03. Quarters and Dimes (8:09)
04. Johanna's Waltz (6:36)
05. My Blues (6:47)
06. I'm Afraid (10:41)
07. Peruvian Nights (9:12)
08. Blues for Lady J. (9:43)
Состав:
Benny Bailey - trumpet
Frank Wunsch - piano
Fritz Krisse - bass
Jo Krause - drums
Recorded at Schuttbau Tagungs- und Kulturzentrum Rugheim in March 1995.
 
Лог создания рипа
Exact Audio Copy V1.0 beta 3 from 29. August 2011
EAC extraction logfile from 23. December 2012, 16:47
The Benny Bailey Quartet / Angel Eyes
Used drive : HL-DT-STDVDRAM GT30N Adapter: 0 ID: 1
Read mode : Secure
Utilize accurate stream : Yes
Defeat audio cache : Yes
Make use of C2 pointers : No
Read offset correction : 103
Overread into Lead-In and Lead-Out : No
Fill up missing offset samples with silence : Yes
Delete leading and trailing silent blocks : No
Null samples used in CRC calculations : Yes
Used interface : Native Win32 interface for Win NT & 2000
Gap handling : Appended to previous track
Used output format : User Defined Encoder
Selected bitrate : 1024 kBit/s
Quality : High
Add ID3 tag : No
Command line compressor : C:\Program Files (x86)\Exact Audio Copy\Flac\flac.exe
Additional command line options : -8 -V -T "ARTIST=%artist%" -T "TITLE=%title%" -T "ALBUM=%albumtitle%" -T "DATE=%year%" -T "TRACKNUMBER=%tracknr%" -T "GENRE=%genre%" -T "PERFORMER=%albuminterpret%" -T "COMPOSER=%composer%" %haslyrics%--tag-from-file=LYRICS="%lyricsfile%"%haslyrics% -T "ALBUMARTIST=%albumartist%" -T "DISCNUMBER=%cdnumber%" -T "TOTALDISCS=%totalcds%" -T "TOTALTRACKS=%numtracks%" -T "COMMENT=%comment%" %source% -o %dest%
TOC of the extracted CD
Track | Start | Length | Start sector | End sector
---------------------------------------------------------
1 | 0:00.33 | 8:25.30 | 33 | 37937
2 | 8:25.63 | 10:01.57 | 37938 | 83069
3 | 18:27.45 | 8:08.40 | 83070 | 119709
4 | 26:36.10 | 6:36.28 | 119710 | 149437
5 | 33:12.38 | 6:46.50 | 149438 | 179937
6 | 39:59.13 | 10:40.62 | 179938 | 227999
7 | 50:40.00 | 9:12.23 | 228000 | 269422
8 | 59:52.23 | 9:43.10 | 269423 | 313157
Track 1
Filename D:\My Documents\Dropbox\My Music\What.cd project\Benny Bailey Quartet - 1995 - Angel Eyes [FLAC]\01 - Will You Still Be Mine.wav
Pre-gap length 0:00:02.44
Peak level 98.6 %
Extraction speed 1.4 X
Track quality 100.0 %
Test CRC 838AE548
Copy CRC 838AE548
Track not present in AccurateRip database
Copy OK
Track 2
Filename D:\My Documents\Dropbox\My Music\What.cd project\Benny Bailey Quartet - 1995 - Angel Eyes [FLAC]\02 - Angel Eyes.wav
Pre-gap length 0:00:02.30
Peak level 71.1 %
Extraction speed 1.7 X
Track quality 100.0 %
Test CRC DF89395A
Copy CRC DF89395A
Track not present in AccurateRip database
Copy OK
Track 3
Filename D:\My Documents\Dropbox\My Music\What.cd project\Benny Bailey Quartet - 1995 - Angel Eyes [FLAC]\03 - Quarters And Dimes.wav
Pre-gap length 0:00:02.26
Peak level 99.2 %
Extraction speed 1.9 X
Track quality 100.0 %
Test CRC 725A61E6
Copy CRC 725A61E6
Track not present in AccurateRip database
Copy OK
Track 4
Filename D:\My Documents\Dropbox\My Music\What.cd project\Benny Bailey Quartet - 1995 - Angel Eyes [FLAC]\04 - Johanna's Waltz.wav
Pre-gap length 0:00:02.42
Peak level 73.2 %
Extraction speed 1.9 X
Track quality 99.9 %
Test CRC 800D8E4A
Copy CRC 800D8E4A
Track not present in AccurateRip database
Copy OK
Track 5
Filename D:\My Documents\Dropbox\My Music\What.cd project\Benny Bailey Quartet - 1995 - Angel Eyes [FLAC]\05 - My Blues.wav
Pre-gap length 0:00:01.97
Peak level 99.5 %
Extraction speed 2.1 X
Track quality 99.9 %
Test CRC 17A67F4F
Copy CRC 17A67F4F
Track not present in AccurateRip database
Copy OK
Track 6
Filename D:\My Documents\Dropbox\My Music\What.cd project\Benny Bailey Quartet - 1995 - Angel Eyes [FLAC]\06 - I'm Afraid.wav
Pre-gap length 0:00:02.13
Peak level 79.8 %
Extraction speed 2.5 X
Track quality 100.0 %
Test CRC 5D8FFA16
Copy CRC 5D8FFA16
Track not present in AccurateRip database
Copy OK
Track 7
Filename D:\My Documents\Dropbox\My Music\What.cd project\Benny Bailey Quartet - 1995 - Angel Eyes [FLAC]\07 - Peruvian Nights.wav
Pre-gap length 0:00:02.29
Peak level 80.3 %
Extraction speed 2.6 X
Track quality 100.0 %
Test CRC 70980533
Copy CRC 70980533
Track not present in AccurateRip database
Copy OK
Track 8
Filename D:\My Documents\Dropbox\My Music\What.cd project\Benny Bailey Quartet - 1995 - Angel Eyes [FLAC]\08 - Blues For Lady J..wav
Pre-gap length 0:00:01.66
Peak level 100.0 %
Extraction speed 2.8 X
Track quality 100.0 %
Test CRC 66863BAD
Copy CRC 66863BAD
Track not present in AccurateRip database
Copy OK
None of the tracks are present in the AccurateRip database
No errors occurred
End of status report
==== Log checksum 781DA133F7C9305BA6E7A4ACEF0C09F22D011B9D0B5BC7B38E00AC1EECF2979C ====
 
Содержание индексной карты (.CUE)
REM GENRE Jazz
REM DATE 1995
REM DISCID 6C104F08
REM COMMENT "ExactAudioCopy v1.0b3"
PERFORMER "Benny Bailey"
TITLE "Angel Eyes"
FILE "01 - Will You Still Be Mine.wav" WAVE
TRACK 01 AUDIO
TITLE "Will You Still Be Mine"
PERFORMER "Benny Bailey"
ISRC DEE399506801
PREGAP 00:00:33
INDEX 01 00:00:00
TRACK 02 AUDIO
TITLE "Angel Eyes"
PERFORMER "Benny Bailey"
ISRC DEE399506802
INDEX 00 08:23:07
FILE "02 - Angel Eyes.wav" WAVE
INDEX 01 00:00:00
TRACK 03 AUDIO
TITLE "Quarters and Dimes"
PERFORMER "Benny Bailey"
ISRC DEE399506803
INDEX 00 09:59:37
FILE "03 - Quarters and Dimes.wav" WAVE
INDEX 01 00:00:00
TRACK 04 AUDIO
TITLE "Johanna's Waltz"
PERFORMER "Benny Bailey"
ISRC DEE399506804
INDEX 00 08:06:08
FILE "04 - Johanna's Waltz.wav" WAVE
INDEX 01 00:00:00
TRACK 05 AUDIO
TITLE "My Blues"
PERFORMER "Benny Bailey"
ISRC DEE399506805
INDEX 00 06:34:30
FILE "05 - My Blues.wav" WAVE
INDEX 01 00:00:00
TRACK 06 AUDIO
TITLE "I'm Afraid"
PERFORMER "Benny Bailey"
ISRC DEE399506806
INDEX 00 06:44:40
FILE "06 - I'm Afraid.wav" WAVE
INDEX 01 00:00:00
TRACK 07 AUDIO
TITLE "Peruvian Nights"
PERFORMER "Benny Bailey"
ISRC DEE399506807
INDEX 00 10:38:40
FILE "07 - Peruvian Nights.wav" WAVE
INDEX 01 00:00:00
TRACK 08 AUDIO
TITLE "Blues for Lady J."
PERFORMER "Benny Bailey"
ISRC DEE399506808
INDEX 00 09:10:48
FILE "08 - Blues for Lady J..wav" WAVE
INDEX 01 00:00:00
 
Отчет CUETools
[CUETools log; Date: 19.04.2014 0:26:38; Version: 2.1.4]
Pregap length 00:00:33.
[CTDB TOCID: pmEnexkpFYEmRIKxeCi1nJc45gw-] disk not present in database.
[AccurateRip ID: 00151164-008c63c7-6c104f08] found.
Track [ CRC | V2 ] Status
01 [139fa9eb|502f2621] (0+1/1) Accurately ripped
02 [0fdafd3f|4f560741] (0+1/1) Accurately ripped
03 [a62f200a|5e5cb765] (0+1/1) Accurately ripped
04 [4da8e869|086c21ac] (0+1/1) Accurately ripped
05 [e5fbfdaf|371f7a3d] (0+1/1) Accurately ripped
06 [c02e18ee|e622c71d] (0+1/1) Accurately ripped
07 [518051be|4bae4031] (0+1/1) Accurately ripped
08 [650bfee4|6dfe6cc3] (0+1/1) Accurately ripped
Track Peak [ CRC32 ] [W/O NULL] [ LOG ]
-- 100,0 [5A1D3F51] [4408A791]
01 98,6 [838AE548] [12CD4A33] CRC32
02 71,1 [DF89395A] [1F75CA64] CRC32
03 99,2 [725A61E6] [0F234550] CRC32
04 73,2 [800D8E4A] [840DAAA9] CRC32
05 99,5 [17A67F4F] [72D0FE4F] CRC32
06 79,8 [5D8FFA16] [F95A5BB4] CRC32
07 80,3 [70980533] [9E7A3A3C] CRC32
08 100,0 [66863BAD] [72E2A81D] CRC32
Any questions - support@pro-jazz.com. Есть вопросы - support@pro-jazz.com
08:29
240
Нет комментариев. Ваш будет первым!