Поиск

(Bop, Hard Bop) [CD] Herb Geller - Herb Geller Plays (1954-1955) - 1998 (Japan Edition), FLAC (tracks+.cue), lossless

(Bop, Hard Bop) [CD] Herb Geller - Herb Geller Plays (1954-1955) - 1998 (Japan Edition), FLAC (tracks+.cue), lossless
Треклист:
Herb Geller - Herb Geller Plays
Жанр: Bop, Hard Bop
Носитель: CD
Страна-производитель диска: Япония
Год издания: 1998
Издатель (лейбл): Emarcy/Mercury/PolyGram
Номер по каталогу: PHCE-3069
Страна: США
Аудиокодек: FLAC (*.flac)
Тип рипа: tracks+.cue
Битрейт аудио: lossless
Продолжительность: 45:26
Источник (релизер): emule
Наличие сканов в содержимом раздачи: да
Треклист:
01. Love Is Like a Turtle (Geller) - 3:03
02. Sweet Vinegar (Geller) - 5:51
03. Sleigh Ride (Anderson-Parish) - 2:59
04. Silver Rain (Geller) - 2:56
05. Alone Together (Schwartz-Dietz) - 6:53
06. Happy Go Lucky (McHugh-Loesser) - 2:57
07. Days I Never Knew (L.Geller) - 3:26
08. Domestic Harmony (Geller) - 3:33
09. Breaking Through the Sound Barrier (Geller) - 3:26
10. Kahagon (Geller) - 2:49
11. You Stepped Out of a Dream (Brown-Kahn) - 3:25
12. A Room with a View (Coward) - 4:08
Состав:
Herb Geller - alto saxophone
Lorraine Geller - piano
Curtis Counce (#3-6,9-12), Leroy Vinnegar (#1,2,7,8) - bass
Larance Marable (#3-6,9-12), Eldridge Freeman (#1,2,7,8) - drums
Recorded in Los Angeles, CA on August 6 (#6,9-11), 9 (#3-6,12), 1954, and August 24 (#1,2,7,8), 1955.
 
Лог создания рипа
Exact Audio Copy V0.99 prebeta 4 from 23. January 2008
EAC extraction logfile from 10. August 2010, 14:43
Herb Geller / Herb Geller Plays
Used drive  : _NEC    DVD_RW ND-3520A   Adapter: 1  ID: 0
Read mode               : Secure
Utilize accurate stream : Yes
Defeat audio cache      : Yes
Make use of C2 pointers : No
Read offset correction                      : 48
Overread into Lead-In and Lead-Out          : No
Fill up missing offset samples with silence : Yes
Delete leading and trailing silent blocks   : No
Null samples used in CRC calculations       : Yes
Used interface                              : Installed external ASPI interface
Gap handling                                : Appended to previous track
Used output format              : User Defined Encoder
Selected bitrate                : 1024 kBit/s
Quality                         : High
Add ID3 tag                     : No
Command line compressor         : C:\Program Files\FLAC\flac.exe
Additional command line options : -8 -V -T "ARTIST=%a" -T "TITLE=%t" -T "ALBUM=%g" -T "DATE=%y" -T "TRACKNUMBER=%n" -T "GENRE=%m" -T "COMMENT=EAC FLAC -8" %s
TOC of the extracted CD
     Track |   Start  |  Length  | Start sector | End sector
    ---------------------------------------------------------
        1  |  0:00.00 |  3:03.37 |         0    |    13761
        2  |  3:03.37 |  5:51.00 |     13762    |    40086
        3  |  8:54.37 |  2:59.00 |     40087    |    53511
        4  | 11:53.37 |  2:56.00 |     53512    |    66711
        5  | 14:49.37 |  6:53.00 |     66712    |    97686
        6  | 21:42.37 |  2:57.00 |     97687    |   110961
        7  | 24:39.37 |  3:26.00 |    110962    |   126411
        8  | 28:05.37 |  3:33.00 |    126412    |   142386
        9  | 31:38.37 |  3:26.00 |    142387    |   157836
       10  | 35:04.37 |  2:49.00 |    157837    |   170511
       11  | 37:53.37 |  3:25.00 |    170512    |   185886
       12  | 41:18.37 |  4:07.38 |    185887    |   204449
Track  1
     Filename C:\Documents and Settings\All Users\Documents\Uploads\Ex\Herb Geller - Herb Geller Plays (1954) [FLAC] {Japanese Re-Issue on Emarcy}\01 - Love Is Like A Turtle.wav
     Pre-gap length  0:00:02.00
     Peak level 86.8 %
     Track quality 100.0 %
     Test CRC 64F9FF81
     Copy CRC 64F9FF81
     Track not present in AccurateRip database
     Copy OK
Track  2
     Filename C:\Documents and Settings\All Users\Documents\Uploads\Ex\Herb Geller - Herb Geller Plays (1954) [FLAC] {Japanese Re-Issue on Emarcy}\02 - Sweet Vinegar.wav
     Pre-gap length  0:00:02.49
     Peak level 80.0 %
     Track quality 99.9 %
     Test CRC 66CC16ED
     Copy CRC 66CC16ED
     Track not present in AccurateRip database
     Copy OK
Track  3
     Filename C:\Documents and Settings\All Users\Documents\Uploads\Ex\Herb Geller - Herb Geller Plays (1954) [FLAC] {Japanese Re-Issue on Emarcy}\03 - Sleigh Ride.wav
     Pre-gap length  0:00:02.49
     Peak level 98.8 %
     Track quality 99.9 %
     Test CRC 5BC54715
     Copy CRC 5BC54715
     Track not present in AccurateRip database
     Copy OK
Track  4
     Filename C:\Documents and Settings\All Users\Documents\Uploads\Ex\Herb Geller - Herb Geller Plays (1954) [FLAC] {Japanese Re-Issue on Emarcy}\04 - Silver Rain.wav
     Pre-gap length  0:00:02.49
     Peak level 56.0 %
     Track quality 99.9 %
     Test CRC 43ABD98B
     Copy CRC 43ABD98B
     Track not present in AccurateRip database
     Copy OK
Track  5
     Filename C:\Documents and Settings\All Users\Documents\Uploads\Ex\Herb Geller - Herb Geller Plays (1954) [FLAC] {Japanese Re-Issue on Emarcy}\05 - Alone Together.wav
     Pre-gap length  0:00:02.49
     Peak level 100.0 %
     Track quality 100.0 %
     Test CRC 39E3485C
     Copy CRC 39E3485C
     Track not present in AccurateRip database
     Copy OK
Track  6
     Filename C:\Documents and Settings\All Users\Documents\Uploads\Ex\Herb Geller - Herb Geller Plays (1954) [FLAC] {Japanese Re-Issue on Emarcy}\06 - Happy Go Lucky.wav
     Pre-gap length  0:00:02.49
     Peak level 82.3 %
     Track quality 99.9 %
     Test CRC 46E8A717
     Copy CRC 46E8A717
     Track not present in AccurateRip database
     Copy OK
Track  7
     Filename C:\Documents and Settings\All Users\Documents\Uploads\Ex\Herb Geller - Herb Geller Plays (1954) [FLAC] {Japanese Re-Issue on Emarcy}\07 - Days I Never Knew.wav
     Pre-gap length  0:00:02.49
     Peak level 96.9 %
     Track quality 100.0 %
     Test CRC E7CB7F9A
     Copy CRC E7CB7F9A
     Track not present in AccurateRip database
     Copy OK
Track  8
     Filename C:\Documents and Settings\All Users\Documents\Uploads\Ex\Herb Geller - Herb Geller Plays (1954) [FLAC] {Japanese Re-Issue on Emarcy}\08 - Domestic Harmony.wav
     Pre-gap length  0:00:02.49
     Peak level 66.3 %
     Track quality 100.0 %
     Test CRC E964E408
     Copy CRC E964E408
     Track not present in AccurateRip database
     Copy OK
Track  9
     Filename C:\Documents and Settings\All Users\Documents\Uploads\Ex\Herb Geller - Herb Geller Plays (1954) [FLAC] {Japanese Re-Issue on Emarcy}\09 - Breaking Through The Sound Barrier.wav
     Pre-gap length  0:00:02.49
     Peak level 99.4 %
     Track quality 99.9 %
     Test CRC 690356EC
     Copy CRC 690356EC
     Track not present in AccurateRip database
     Copy OK
Track 10
     Filename C:\Documents and Settings\All Users\Documents\Uploads\Ex\Herb Geller - Herb Geller Plays (1954) [FLAC] {Japanese Re-Issue on Emarcy}\10 - Kahagon.wav
     Pre-gap length  0:00:02.49
     Peak level 100.0 %
     Track quality 99.9 %
     Test CRC 8DE84EF8
     Copy CRC 8DE84EF8
     Track not present in AccurateRip database
     Copy OK
Track 11
     Filename C:\Documents and Settings\All Users\Documents\Uploads\Ex\Herb Geller - Herb Geller Plays (1954) [FLAC] {Japanese Re-Issue on Emarcy}\11 - You Stepped Out Of A Dream.wav
     Pre-gap length  0:00:02.49
     Peak level 98.5 %
     Track quality 100.0 %
     Test CRC CBB784C5
     Copy CRC CBB784C5
     Track not present in AccurateRip database
     Copy OK
Track 12
     Filename C:\Documents and Settings\All Users\Documents\Uploads\Ex\Herb Geller - Herb Geller Plays (1954) [FLAC] {Japanese Re-Issue on Emarcy}\12 - A Room With A View.wav
     Pre-gap length  0:00:02.49
     Peak level 87.4 %
     Track quality 99.9 %
     Test CRC 4F4DE2F0
     Copy CRC 4F4DE2F0
     Track not present in AccurateRip database
     Copy OK
None of the tracks are present in the AccurateRip database
No errors occurred
End of status report
 
 
Содержание индексной карты (.CUE)
REM GENRE Jazz
REM DATE 1955
REM DISCID 9A0AA60C
REM COMMENT "ExactAudioCopy v0.99pb4"
PERFORMER "Herb Geller"
TITLE "Herb Geller Plays"
FILE "01 - Love Is Like a Turtle.wav" WAVE
  TRACK 01 AUDIO
    TITLE "Love Is Like a Turtle"
    PERFORMER "Herb Geller"
    INDEX 01 00:00:00
  TRACK 02 AUDIO
    TITLE "Sweet Vinegar"
    PERFORMER "Herb Geller"
    INDEX 00 03:01:00
FILE "02 - Sweet Vinegar.wav" WAVE
    INDEX 01 00:00:00
  TRACK 03 AUDIO
    TITLE "Sleigh Ride"
    PERFORMER "Herb Geller"
    INDEX 00 05:48:38
FILE "03 - Sleigh Ride.wav" WAVE
    INDEX 01 00:00:00
  TRACK 04 AUDIO
    TITLE "Silver Rain"
    PERFORMER "Herb Geller"
    INDEX 00 02:56:38
FILE "04 - Silver Rain.wav" WAVE
    INDEX 01 00:00:00
  TRACK 05 AUDIO
    TITLE "Alone Together"
    PERFORMER "Herb Geller"
    INDEX 00 02:53:38
FILE "05 - Alone Together.wav" WAVE
    INDEX 01 00:00:00
  TRACK 06 AUDIO
    TITLE "Happy Go Lucky"
    PERFORMER "Herb Geller"
    INDEX 00 06:50:38
FILE "06 - Happy Go Lucky.wav" WAVE
    INDEX 01 00:00:00
  TRACK 07 AUDIO
    TITLE "Days I Never Knew"
    PERFORMER "Herb Geller"
    INDEX 00 02:54:38
FILE "07 - Days I Never Knew.wav" WAVE
    INDEX 01 00:00:00
  TRACK 08 AUDIO
    TITLE "Domestic Harmony"
    PERFORMER "Herb Geller"
    INDEX 00 03:23:38
FILE "08 - Domestic Harmony.wav" WAVE
    INDEX 01 00:00:00
  TRACK 09 AUDIO
    TITLE "Breaking Through the Sound Barrier"
    PERFORMER "Herb Geller"
    INDEX 00 03:30:38
FILE "09 - Breaking Through the Sound Barrier.wav" WAVE
    INDEX 01 00:00:00
  TRACK 10 AUDIO
    TITLE "Kahagon"
    PERFORMER "Herb Geller"
    INDEX 00 03:23:38
FILE "10 - Kahagon.wav" WAVE
    INDEX 01 00:00:00
  TRACK 11 AUDIO
    TITLE "You Stepped Out of a Dream"
    PERFORMER "Herb Geller"
    INDEX 00 02:46:38
FILE "11 - You Stepped Out of a Dream.wav" WAVE
    INDEX 01 00:00:00
  TRACK 12 AUDIO
    TITLE "A Room with a View"
    PERFORMER "Herb Geller"
    INDEX 00 03:22:38
FILE "12 - A Room with a View.wav" WAVE
    INDEX 01 00:00:00
 
 
Отчет CUETools
[CUETools log; Date: 13.04.2014 0:09:37; Version: 2.1.4]
[CTDB TOCID: kbF6_ljIrOPe7gKHvc3c6l0i4sA-] found.
Track | CTDB Status
  1   | (1/1) Accurately ripped
  2   | (1/1) Accurately ripped
  3   | (1/1) Accurately ripped
  4   | (1/1) Accurately ripped
  5   | (1/1) Accurately ripped
  6   | (1/1) Accurately ripped
  7   | (1/1) Accurately ripped
  8   | (1/1) Accurately ripped
  9   | (1/1) Accurately ripped
 10   | (1/1) Accurately ripped
 11   | (1/1) Accurately ripped
 12   | (1/1) Accurately ripped
[AccurateRip ID: 0014e85f-00c1b015-9a0aa60c] disk not present in database.
Track Peak [ CRC32  ] [W/O NULL] [  LOG   ]
 --  100,0 [8536AE78] [703E65B7]
 01   86,8 [64F9FF81] [51E67724]   CRC32
 02   80,0 [66CC16ED] [046D3C28]   CRC32
 03   98,8 [5BC54715] [1531005C]   CRC32
 04   56,0 [43ABD98B] [EABAC251]   CRC32
 05  100,0 [39E3485C] [62AA8980]   CRC32
 06   82,3 [46E8A717] [135107CC]   CRC32
 07   96,9 [E7CB7F9A] [B4B67A95]   CRC32
 08   66,3 [E964E408] [0F25ED49]   CRC32
 09   99,4 [690356EC] [D42E3D6F]   CRC32
 10  100,0 [8DE84EF8] [7BD728C0]   CRC32
 11   98,5 [CBB784C5] [BAC94ECF]   CRC32
 12   87,4 [4F4DE2F0] [AB55D056]   CRC32
 
 
Review by Scott Yanow
Other than four titles from a year before, this LP contains altoist Herb Geller's first recordings as a leader. Cut during a period when Herb was based in Los Angeles and regularly working with his wife, the talented but short-lived pianist Lorraine Geller, the music also has either Curtis Counce or Leroy Vinnegar on bass and Lawrence Marable or Eldridge Freeman on drums. Herb Geller was already in his early prime and contributed six originals. The band also performs one of Lorraine's tunes, plus five standards, all in swinging and boppish style. This LP (which has not been reissued lately) is well worth searching for.
По всем вопросам пишите личное сообщение пользователю M0p94ok.
07:13
375
Нет комментариев. Ваш будет первым!