Поиск

(Bop, Hard Bop) [CD] Cannonball Adderley with Bill Evans - Know What I Mean? {1961} - 2011, FLAC (tracks+.cue), lossless

(Bop, Hard Bop) [CD] Cannonball Adderley with Bill Evans - Know What I Mean? {1961} - 2011, FLAC (tracks+.cue), lossless
Треклист:
♦ Cannonball Adderley with Bill Evans - Know What I Mean? {1961} ♦
Жанр: Bop, Hard Bop
Носитель: CD
Страна-производитель диска: EU
Год издания: 2011
Издатель (лейбл): Riverside / Concord
Номер по каталогу: 0888072326910
Аудиокодек: FLAC (*.flac)
Тип рипа: tracks+.cue
Битрейт аудио: lossless
Продолжительность: 00:58:43
Источник (релизер): ruskaval
Наличие сканов в содержимом раздачи: да
Треклист:
01. Waltz For Debby [05:17]
02. Goodbye [06:17]
03. Who Cares? (Take 5) [05:58]
04. Venice [02:56]
05. Toy (Take 10) [05:10]
06. Elsa [05:52]
07. Nancy (With The Laughing Face) [04:08]
08. Know What I Mean? (Re-take 7) [04:56]
09. Who Cares? (Take 4) (bonus track) [05:56]
10. Toy (Take 8) (bonus track) [05:06]
11. Know What I Mean? (Take 12) (bonus track) [07:02]
 
Лог создания рипа
Exact Audio Copy V1.0 beta 3 from 29. August 2011
EAC extraction logfile from 5. February 2014, 18:20
Cannonball Adderley with Bill Evans / Know What I Mean?
Used drive  : TSSTcorpCDDVDW SE-208DB   Adapter: 7  ID: 0
Read mode               : Secure
Utilize accurate stream : Yes
Defeat audio cache      : Yes
Make use of C2 pointers : No
Read offset correction                      : 6
Overread into Lead-In and Lead-Out          : No
Fill up missing offset samples with silence : Yes
Delete leading and trailing silent blocks   : No
Null samples used in CRC calculations       : Yes
Used interface                              : Native Win32 interface for Win NT & 2000
Gap handling                                : Appended to previous track
Used output format              : User Defined Encoder
Selected bitrate                : 1024 kBit/s
Quality                         : High
Add ID3 tag                     : No
Command line compressor         : C:\Program Files (x86)\FLAC Frontend\tools\flac.exe
Additional command line options : -8 -V -T "ARTIST=%artist%" -T "TITLE=%title%" -T "ALBUM=%albumtitle%" -T "DATE=%year%" -T "TRACKNUMBER=%tracknr%" -T "TOTALTRACKS=%numtracks%" -T "GENRE=%genre%" -T "ALBUMARTIST=%albumartist%" -T "ALBUM ARTIST=%albumartist%" -T "COMMENT=EAC Secure Mode, Test & Copy, AccurateRip, FLAC -8" %source%
TOC of the extracted CD
     Track |   Start  |  Length  | Start sector | End sector
    ---------------------------------------------------------
        1  |  0:00.00 |  5:17.74 |         0    |    23848
        2  |  5:17.74 |  6:17.41 |     23849    |    52164
        3  | 11:35.40 |  5:58.57 |     52165    |    79071
        4  | 17:34.22 |  2:56.11 |     79072    |    92282
        5  | 20:30.33 |  5:10.17 |     92283    |   115549
        6  | 25:40.50 |  5:52.07 |    115550    |   141956
        7  | 31:32.57 |  4:08.34 |    141957    |   160590
        8  | 35:41.16 |  4:56.44 |    160591    |   182834
        9  | 40:37.60 |  5:56.54 |    182835    |   209588
       10  | 46:34.39 |  5:06.48 |    209589    |   232586
       11  | 51:41.12 |  7:02.22 |    232587    |   264258
Track  1
     Filename C:\Cannonball Adderley with Bill Evans ‎– Know What I Mean (1961) {2011 OJC Remasters Series}\01 - Waltz For Debby.wav
     Pre-gap length  0:00:02.00
     Peak level 97.9 %
     Extraction speed 1.0 X
     Track quality 100.0 %
     Test CRC 12E51F25
     Copy CRC 12E51F25
     Accurately ripped (confidence 11)  [5F780A1B]  (AR v2)
     Copy OK
Track  2
     Filename C:\Cannonball Adderley with Bill Evans ‎– Know What I Mean (1961) {2011 OJC Remasters Series}\02 - Goodbye.wav
     Peak level 80.6 %
     Extraction speed 1.2 X
     Track quality 100.0 %
     Test CRC E7455563
     Copy CRC E7455563
     Accurately ripped (confidence 11)  [2A8CCB94]  (AR v2)
     Copy OK
Track  3
     Filename C:\Cannonball Adderley with Bill Evans ‎– Know What I Mean (1961) {2011 OJC Remasters Series}\03 - Who Cares (Take 5).wav
     Peak level 97.9 %
     Extraction speed 1.3 X
     Track quality 100.0 %
     Test CRC FEC4B38B
     Copy CRC FEC4B38B
     Accurately ripped (confidence 11)  [7BBD2559]  (AR v2)
     Copy OK
Track  4
     Filename C:\Cannonball Adderley with Bill Evans ‎– Know What I Mean (1961) {2011 OJC Remasters Series}\04 - Venice.wav
     Peak level 75.9 %
     Extraction speed 1.3 X
     Track quality 100.0 %
     Test CRC 12726BC7
     Copy CRC 12726BC7
     Accurately ripped (confidence 11)  [F349EC1B]  (AR v2)
     Copy OK
Track  5
     Filename C:\Cannonball Adderley with Bill Evans ‎– Know What I Mean (1961) {2011 OJC Remasters Series}\05 - Toy (Take 10).wav
     Peak level 97.9 %
     Extraction speed 1.5 X
     Track quality 100.0 %
     Test CRC 338AC449
     Copy CRC 338AC449
     Accurately ripped (confidence 11)  [3FA9AD12]  (AR v2)
     Copy OK
Track  6
     Filename C:\Cannonball Adderley with Bill Evans ‎– Know What I Mean (1961) {2011 OJC Remasters Series}\06 - Elsa.wav
     Peak level 66.9 %
     Extraction speed 1.6 X
     Track quality 100.0 %
     Test CRC AD3C4DBD
     Copy CRC AD3C4DBD
     Accurately ripped (confidence 11)  [1048AC11]  (AR v2)
     Copy OK
Track  7
     Filename C:\Cannonball Adderley with Bill Evans ‎– Know What I Mean (1961) {2011 OJC Remasters Series}\07 - Nancy (With The Laughing Face).wav
     Peak level 75.4 %
     Extraction speed 1.5 X
     Track quality 100.0 %
     Test CRC B6CC3B7F
     Copy CRC B6CC3B7F
     Accurately ripped (confidence 11)  [BCD33DC5]  (AR v2)
     Copy OK
Track  8
     Filename C:\Cannonball Adderley with Bill Evans ‎– Know What I Mean (1961) {2011 OJC Remasters Series}\08 - Know What I Mean (Re-take 7).wav
     Peak level 97.9 %
     Extraction speed 1.7 X
     Track quality 100.0 %
     Test CRC BE1064E4
     Copy CRC BE1064E4
     Accurately ripped (confidence 11)  [17333288]  (AR v2)
     Copy OK
Track  9
     Filename C:\Cannonball Adderley with Bill Evans ‎– Know What I Mean (1961) {2011 OJC Remasters Series}\09 - Who Cares (Take 4) (bonus track).wav
     Peak level 97.9 %
     Extraction speed 1.8 X
     Track quality 100.0 %
     Test CRC 60B33B0E
     Copy CRC 60B33B0E
     Accurately ripped (confidence 11)  [89FB2601]  (AR v2)
     Copy OK
Track 10
     Filename C:\Cannonball Adderley with Bill Evans ‎– Know What I Mean (1961) {2011 OJC Remasters Series}\10 - Toy (Take 8) (bonus track).wav
     Peak level 100.0 %
     Extraction speed 1.8 X
     Track quality 100.0 %
     Test CRC DCB85F6B
     Copy CRC DCB85F6B
     Accurately ripped (confidence 11)  [6CFBF0AE]  (AR v2)
     Copy OK
Track 11
     Filename C:\Cannonball Adderley with Bill Evans ‎– Know What I Mean (1961) {2011 OJC Remasters Series}\11 - Know What I Mean (Take 12) (bonus track).wav
     Peak level 97.9 %
     Extraction speed 1.8 X
     Track quality 99.9 %
     Test CRC F24F9DA2
     Copy CRC F24F9DA2
     Accurately ripped (confidence 11)  [4ABBE7CE]  (AR v2)
     Copy OK
All tracks accurately ripped
No errors occurred
End of status report
==== Log checksum A509987933571F831467BDD0834A7DB5C194619FC9C94FECB02D8856A142A5E7 ====
 
 
Содержание индексной карты (.CUE)
REM GENRE Jazz
REM DATE 2011
REM DISCID 960DC30B
REM COMMENT "ExactAudioCopy v1.0b3"
PERFORMER "Cannonball Adderley with Bill Evans"
TITLE "Know What I Mean?"
FILE "01 - Waltz For Debby.wav" WAVE
  TRACK 01 AUDIO
    TITLE "Waltz For Debby"
    PERFORMER "Cannonball Adderley with Bill Evans"
    INDEX 01 00:00:00
FILE "02 - Goodbye.wav" WAVE
  TRACK 02 AUDIO
    TITLE "Goodbye"
    PERFORMER "Cannonball Adderley with Bill Evans"
    INDEX 01 00:00:00
FILE "03 - Who Cares (Take 5).wav" WAVE
  TRACK 03 AUDIO
    TITLE "Who Cares? (Take 5)"
    PERFORMER "Cannonball Adderley with Bill Evans"
    INDEX 01 00:00:00
FILE "04 - Venice.wav" WAVE
  TRACK 04 AUDIO
    TITLE "Venice"
    PERFORMER "Cannonball Adderley with Bill Evans"
    INDEX 01 00:00:00
FILE "05 - Toy (Take 10).wav" WAVE
  TRACK 05 AUDIO
    TITLE "Toy (Take 10)"
    PERFORMER "Cannonball Adderley with Bill Evans"
    INDEX 01 00:00:00
FILE "06 - Elsa.wav" WAVE
  TRACK 06 AUDIO
    TITLE "Elsa"
    PERFORMER "Cannonball Adderley with Bill Evans"
    INDEX 01 00:00:00
FILE "07 - Nancy (With The Laughing Face).wav" WAVE
  TRACK 07 AUDIO
    TITLE "Nancy (With The Laughing Face)"
    PERFORMER "Cannonball Adderley with Bill Evans"
    INDEX 01 00:00:00
FILE "08 - Know What I Mean (Re-take 7).wav" WAVE
  TRACK 08 AUDIO
    TITLE "Know What I Mean? (Re-take 7)"
    PERFORMER "Cannonball Adderley with Bill Evans"
    INDEX 01 00:00:00
FILE "09 - Who Cares (Take 4) (bonus track).wav" WAVE
  TRACK 09 AUDIO
    TITLE "Who Cares? (Take 4) (bonus track)"
    PERFORMER "Cannonball Adderley with Bill Evans"
    INDEX 01 00:00:00
FILE "10 - Toy (Take 8) (bonus track).wav" WAVE
  TRACK 10 AUDIO
    TITLE "Toy (Take 8) (bonus track)"
    PERFORMER "Cannonball Adderley with Bill Evans"
    INDEX 01 00:00:00
FILE "11 - Know What I Mean (Take 12) (bonus track).wav" WAVE
  TRACK 11 AUDIO
    TITLE "Know What I Mean? (Take 12) (bonus track)"
    PERFORMER "Cannonball Adderley with Bill Evans"
    INDEX 01 00:00:00
 
 
Состав
Personnel:
Cannonball Adderley - alto saxophone
Bill Evans - piano
Percy Heath - bass
Connie Kay - drums
По всем вопросам пишите личное сообщение пользователю M0p94ok.
06:01
281
Нет комментариев. Ваш будет первым!