Вы используете незарегистрированную версию компонента "Вкладки"!

Поиск

(Bop) Gene Ammons & Dodo Marmarosa - Jug & Dodo (1962) - 1990, FLAC (image+.cue) lossless

(Bop) Gene Ammons & Dodo Marmarosa - Jug & Dodo (1962) - 1990, FLAC (image+.cue) lossless
Треклист:
Gene Ammons & Dodo Marmarosa – Jug & Dodo (1962)
Жанр: Bop
Год издания диска: 1990
Лейбл: Prestige
Номер по каталогу: PCD-24021-2
Аудио кодек: FLAC (*.flac)
Тип рипа: image+.cue
Битрейт аудио: lossless
Продолжительность: 69:13
Rip by Mazeppa
Сканы: 300 dpi
Треклист:
01. Georgia (5:35)
02. For You (4:26)
03. You're Driving Me Crazy (6:49)
04. Where Or When (6:58)
05. The Song Is You (7:36)
06. Just Friends (5:21)
07. Yardbird Suite (take 1) (3:55)
08. Yardbird Suite (take 2) (4:23)
09. I Remember You (3:45)
10. Bluzarumba (3:34)
11. The Moody Blues (4:13)
12. Falling In Love With You (take 1) (4:56)
13. Falling In Love With You (take 2) (3:39)
14. The Very Thought Of You (4:02)
Personnel:
Gene Ammons - ts
Dodo Marmarosa - p
Sam Jones - b
Marshall Thompson - d
Rec.: Chicago, Illinois, 1962.
 
 
Лог создания рипа
EAC extraction logfile from 16. June 2007, 9:39 for CD
Gene Ammons / Jug & Dodo
Used drive : LITE-ON CD-ROM LTN-527T Adapter: 1 ID: 1
Read mode : Secure with NO C2, accurate stream, disable cache
Read offset correction : 12
Overread into Lead-In and Lead-Out : Yes
Used output format : C:\Program Files\Monkey's Audio\MAC.exe (Monkey's Audio Lossless Encoder)
High Lossless Compression
Other options :
Fill up missing offset samples with silence : Yes
Delete leading and trailing silent blocks : No
Installed external ASPI interface
Range status and errors
Selected range
Filename F:\Win-Rar\Gene Ammons & Dodo Marmarosa - Jug & Dodo (1962)[APE Full Scans]\Gene Ammons - Jug & Dodo.wav.wav
Peak level 91.1 %
Range quality 100.0 %
CRC DF408F6E
Copy OK
No errors occured
End of status report
 
AccurateRip
[CUETools log; Date: 10.04.2013 20:54:46; Version: 2.0.9]
[CTDB TOCID: 75jYrnJgiVXfVcVEwZyZXIJmncE-] found.
[ CTDBID ] Status
[eee26e1c] (2/2) Accurately ripped
[AccurateRip ID: 0026b7cb-019506c6-b710390e] found.
Track [ CRC ] Status
01 [208851a8] (3/7) Accurately ripped
02 [fa696991] (3/7) Accurately ripped
03 [02498ec4] (3/7) Accurately ripped
04 [ded1e809] (3/7) Accurately ripped
05 [707f5920] (3/7) Accurately ripped
06 [968d5e17] (3/7) Accurately ripped
07 [de1a8479] (3/7) Accurately ripped
08 [81df4db3] (3/7) Accurately ripped
09 [8e581437] (3/7) Accurately ripped
10 [984c5a7a] (3/7) Accurately ripped
11 [771b6c0b] (3/7) Accurately ripped
12 [d3e470ae] (3/7) Accurately ripped
13 [6b17c6fd] (3/7) Accurately ripped
14 [c4dccd64] (3/7) Accurately ripped
Offsetted by -664:
01 [67396277] (4/7) Accurately ripped
02 [5573c65a] (4/7) Accurately ripped
03 [d0a7e5d5] (4/7) Accurately ripped
04 [f9602f5d] (4/7) Accurately ripped
05 [4bb29b8a] (4/7) Accurately ripped
06 [3f29285b] (4/7) Accurately ripped
07 [cf3a21b0] (4/7) Accurately ripped
08 [0af89e24] (4/7) Accurately ripped
09 [b69845b3] (4/7) Accurately ripped
10 [283019c3] (4/7) Accurately ripped
11 [e6ec7f01] (4/7) Accurately ripped
12 [289ba1a6] (4/7) Accurately ripped
13 [229dc62c] (4/7) Accurately ripped
14 [4fb37037] (4/7) Accurately ripped
Track Peak [ CRC32 ] [W/O NULL] [ LOG ]
-- 91,1 [DF408F6E] [8769BD75] CRC32
01 55,4 [DFBF787B] [641F436F]
02 80,0 [0327C777] [BBF095AB]
03 91,1 [603144C0] [1D2759D9]
04 52,3 [21D0C60C] [2A0C97D4]
05 60,7 [07F06082] [CD2FD5FF]
06 46,8 [2374658D] [F5FF0CEA]
07 52,8 [DE7A7BC3] [86281691]
08 64,4 [7BE76B22] [F393A916]
09 61,3 [84D104E9] [8DE72316]
10 73,9 [2076A09D] [BD061F95]
11 58,6 [7C414945] [ADB5AF1A]
12 69,4 [3DE46081] [F4EAC558]
13 65,9 [2A711A97] [E7CB68BF]
14 54,8 [29488951] [2DED494D]
Any questions - support@pro-jazz.com.
Есть вопросы - support@pro-jazz.com
22:09
255
Нет комментариев. Ваш будет первым!