Поиск

(Bop) Ellis Marsalis - Whistle Stop - 1994, WavPack (image+.cue), lossless

(Bop) Ellis Marsalis - Whistle Stop - 1994, WavPack (image+.cue), lossless
Треклист:
Ellis Marsalis - Whistle Stop
Жанр: Bop
Год издания диска: 1994
Издатель (лейбл): Columbia / Sony
Номер по каталогу: 474555 2
Страна: США
Аудиокодек: WavPack (*.wv)
Тип рипа: image+.cue
Битрейт аудио: lossless
Продолжительность: 72:41
Источник (релизер): ffsf (hqshare)
Наличие сканов в содержимом раздачи: нет
Треклист:
01. Whistle Stop (Black) - 4:58
02. Dee Wee (Black) - 6:33
03. A Moment Alone (Marsalis) - 4:18
04. Magnolia Triangle (Black) - 6:07
05. Mozartin' (Batiste) - 4:34
06. Cry Again (Marsalis) - 6:00
07. Cochise (Batiste) - 7:07
08. Lil' Boy Man (Black) - 6:26
09. Monkey Puzzle (Black) - 7:17
10. After (Marsalis) - 5:11
11. Beautiful Old Ladies (Batiste) - 3:54
12. Little Joy (Perrilliat) - 5:35
13. When We First Met (Marsalis) - 4:41
Состав:
Ellis Marsalis - piano
Branford Marsalis - saxophone
Robert Hurst - bass
Jeff "Tain" Watts, Jason Marsalis (#4,7) - drums
Recorded on March 20 - June 6, 1993.
 
Лог создания рипа
Exact Audio Copy V0.99 prebeta 5 from 4. May 2009
EAC extraction logfile from 6. December 2009, 16:48
Ellis Marsalis / Whistle Stop
Used drive  : MATSHITADVD-ROM SR-8588   Adapter: 1  ID: 1
Read mode               : Secure
Utilize accurate stream : Yes
Defeat audio cache      : Yes
Make use of C2 pointers : No
Read offset correction                      : 103
Overread into Lead-In and Lead-Out          : No
Fill up missing offset samples with silence : Yes
Delete leading and trailing silent blocks   : No
Null samples used in CRC calculations       : Yes
Used interface                              : Installed external ASPI interface
Used output format : Internal WAV Routines
Sample format      : 44.100 Hz; 16 Bit; Stereo
TOC of the extracted CD
     Track |   Start  |  Length  | Start sector | End sector
    ---------------------------------------------------------
        1  |  0:00.00 |  4:58.27 |         0    |    22376
        2  |  4:58.27 |  6:33.03 |     22377    |    51854
        3  | 11:31.30 |  4:18.07 |     51855    |    71211
        4  | 15:49.37 |  6:07.25 |     71212    |    98761
        5  | 21:56.62 |  4:33.63 |     98762    |   119299
        6  | 26:30.50 |  5:59.70 |    119300    |   146294
        7  | 32:30.45 |  7:07.35 |    146295    |   178354
        8  | 39:38.05 |  6:26.10 |    178355    |   207314
        9  | 46:04.15 |  7:16.62 |    207315    |   240076
       10  | 53:21.02 |  5:11.18 |    240077    |   263419
       11  | 58:32.20 |  3:53.57 |    263420    |   280951
       12  | 62:26.02 |  5:35.20 |    280952    |   306096
       13  | 68:01.22 |  4:40.40 |    306097    |   327136
Range status and errors
Selected range
     Filename C:\EAC\Ellis Marsalis - Whistle Stop.wav
     Peak level 100.0 %
     Range quality 100.0 %
     Test CRC E29F4101
     Copy CRC E29F4101
     Copy OK
No errors occurred
AccurateRip summary
Track  1  accurately ripped (confidence 2)  [DF4255D1]
Track  2  accurately ripped (confidence 2)  [DA3F5756]
Track  3  accurately ripped (confidence 2)  [A80E6E52]
Track  4  accurately ripped (confidence 2)  [E21069C0]
Track  5  accurately ripped (confidence 2)  [69B692B2]
Track  6  accurately ripped (confidence 2)  [52B9C729]
Track  7  accurately ripped (confidence 2)  [29AE6BA5]
Track  8  accurately ripped (confidence 2)  [3A9072CE]
Track  9  accurately ripped (confidence 2)  [EA713673]
Track 10  accurately ripped (confidence 2)  [5108BEBD]
Track 11  accurately ripped (confidence 2)  [C3524EA4]
Track 12  accurately ripped (confidence 2)  [CA49616C]
Track 13  accurately ripped (confidence 2)  [3997B5B2]
All tracks accurately ripped
End of status report
 
 
Содержание индексной карты (.CUE)
REM GENRE Jazz
REM DATE 1994
REM DISCID B111090D
REM COMMENT "ExactAudioCopy v0.99pb5"
PERFORMER "Ellis Marsalis"
TITLE "Whistle Stop"
FILE "Ellis Marsalis - Whistle Stop.wav" WAVE
  TRACK 01 AUDIO
    TITLE "Whistle Stop"
    PERFORMER "Ellis Marsalis"
    INDEX 01 00:00:00
  TRACK 02 AUDIO
    TITLE "Dee Wee"
    PERFORMER "Ellis Marsalis"
    INDEX 01 04:58:27
  TRACK 03 AUDIO
    TITLE "A Moment Alone"
    PERFORMER "Ellis Marsalis"
    INDEX 01 11:31:30
  TRACK 04 AUDIO
    TITLE "Magnolia Triangle"
    PERFORMER "Ellis Marsalis"
    INDEX 01 15:49:37
  TRACK 05 AUDIO
    TITLE "Mozartin'"
    PERFORMER "Ellis Marsalis"
    INDEX 01 21:56:62
  TRACK 06 AUDIO
    TITLE "Cry Again"
    PERFORMER "Ellis Marsalis"
    INDEX 01 26:30:50
  TRACK 07 AUDIO
    TITLE "Cochise"
    PERFORMER "Ellis Marsalis"
    INDEX 01 32:30:45
  TRACK 08 AUDIO
    TITLE "Lil' Boy Man"
    PERFORMER "Ellis Marsalis"
    INDEX 01 39:38:05
  TRACK 09 AUDIO
    TITLE "Monkey Puzzle"
    PERFORMER "Ellis Marsalis"
    INDEX 01 46:04:15
  TRACK 10 AUDIO
    TITLE "After"
    PERFORMER "Ellis Marsalis"
    INDEX 01 53:21:02
  TRACK 11 AUDIO
    TITLE "Beautiful Old Ladies"
    PERFORMER "Ellis Marsalis"
    INDEX 01 58:32:20
  TRACK 12 AUDIO
    TITLE "Little Joy"
    PERFORMER "Ellis Marsalis"
    INDEX 01 62:26:02
  TRACK 13 AUDIO
    TITLE "When We First Met"
    PERFORMER "Ellis Marsalis"
    INDEX 01 68:01:22
 
 
Review by Scott Yanow
For this CD, veteran pianist Ellis Marsalis performs songs composed by some of the top modern New Orleans players of the 1960s, including drummer James Black, tenor saxophonist Nat Perrilliat, clarinetist Alvin Batiste, saxophonist Harold Battiste, and himself. With the exception of Alvin Batiste's tunes (based on "Cherokee" and a Dixieland-ish blues), the originals have strong melodies, slightly tricky chord structures, and sound quite fresh. Marsalis utilizes his son, Branford, on tenor and soprano; bassist Robert Hurst; and drummer Jeff "Tain" Watts; the young Jason Marsalis sits in on drums during two numbers. Ellis Marsalis is in particularly inventive form on this unusually obscure material.
Взамен ушедшей в архив.
По всем вопросам пишите личное сообщение пользователю M0p94ok.
20:29
332
Нет комментариев. Ваш будет первым!