Вы используете незарегистрированную версию компонента "Вкладки"!

Поиск

(Bop, Cool, West Coast Jazz) [CD] Bob Brookmeyer (Jimmy Giuffre, Zoot Sims, Al Cohn, Paul Quinichette, Harry Sweets Edison, Hank Jones, Jim Hall, Jimmy Raney, Freddie Green, Dave Bailey...) - Mosaic Select 9 (3CD) - 2004, FLAC (tracks+.cue), lossless

Треклист:
Bob Brookmeyer / Mosaic Select 9 (3CD compilation)
(with Jimmy Giuffre, Zoot Sims, Al Cohn, Paul Quinichette, Harry Sweets Edison, Hank Jones, Jim Hall, Jimmy Raney, Freddie Green, Dave Bailey...)
Жанр: Bop, Cool, West Coast Jazz
Носитель: CD
Страна-производитель диска (релиза): USA
Год издания: 2004
Издатель (лейбл): Mosaic Records
Номер по каталогу: MS-009
Страна исполнителя (группы): USA
Аудиокодек: FLAC (*.flac)
Тип рипа: tracks+.cue
Битрейт аудио: lossless
Продолжительность: 3:23:13
Источник (релизер): wwwubsy @ what.cd
Наличие сканов в содержимом раздачи: да
Треклист:
 
CD1
1-1 Liberty Belle 2:49
1-2 Have You Met Miss Jones 3:34
1-3 Isn't It Romantic 2:37
1-4 Traditional Blues 2:37
1-5 Doe Eyes 3:19
1-6 Red Devil 3:21
1-7 Body And Soul 3:21
1-8 Last Chance 2:50
1-9 Arrowhead 7:00
1-10 Street Strangers 6:21
1-11 Hot Buttered Noodling 6:04
1-12 Musicale Du Jour 8:50
1-13 Raney Day 5:26
1-14 Jupiter 5:06
 
CD2
2-1 Louisiana 5:29
2-2 Santa Claus Blues 5:46
2-3 Truckin' 7:30
2-4 Some Sweet Day 4:49
2-5 Sweet Like This 4:05
2-6 Jada 3:50
2-7 Don't Be That Way 5:01
2-8 Honeysuckle Rose 6:08
2-9 Brook's Blues 4:18
2-10 Slow Freight 8:52
2-11 The Sheik Of Araby 5:04
 
CD3
3-1 Jumpin' At The Woodside 8:02
3-2 A Blues (What's On Your Mind) 5:07
3-3 Blue And Sentimental 6:54
3-4 Doggin' Around 8:42
3-5 Moten Swing 10:14
3-6 Trav'lin' Light 3:34
3-7 Stretching Out 6:10
3-8 Now Will You Be Good 5:30
3-9 Pennies From Heaven 6:17
3-10 King Porter Stomp 4:41
3-11 Ain't Misbehavin' 6:56
3-12 Bee Kay 6:41
 
Лог создания рипа, CD1
Exact Audio Copy V1.0 beta 3 from 29. August 2011
EAC extraction logfile from 2. February 2012, 17:09
Bob Brookmeyer / Mosaic Select #9 (Disc 1 of 3)
Used drive : Optiarc DVD RW AD-7260S Adapter: 3 ID: 0
Read mode : Secure
Utilize accurate stream : Yes
Defeat audio cache : Yes
Make use of C2 pointers : No
Read offset correction : 48
Overread into Lead-In and Lead-Out : No
Fill up missing offset samples with silence : Yes
Delete leading and trailing silent blocks : No
Null samples used in CRC calculations : Yes
Used interface : Native Win32 interface for Win NT & 2000
Gap handling : Appended to previous track
Used output format : User Defined Encoder
Selected bitrate : 1024 kBit/s
Quality : High
Add ID3 tag : No
Command line compressor : C:\Program Files (x86)\Exact Audio Copy\Flac\flac.exe
Additional command line options : -8 -V -T "ARTIST=%artist%" -T "TITLE=%title%" -T "ALBUM=%albumtitle%" -T "DATE=%year%" -T "TRACKNUMBER=%tracknr%" -T "GENRE=%genre%" -T "PERFORMER=%albuminterpret%" -T "COMPOSER=%composer%" -T "ALBUMARTIST=%albumartist%" -T "DISCNUMBER=%cdnumber%" -T "TOTALDISCS=%totalcds%" -T "TOTALTRACKS=%numtracks%" -T "COMMENT=%comment%" %source% -o %dest%
TOC of the extracted CD
Track | Start | Length | Start sector | End sector
---------------------------------------------------------
1 | 0:00.00 | 2:49.35 | 0 | 12709
2 | 2:49.35 | 3:34.32 | 12710 | 28791
3 | 6:23.67 | 2:37.63 | 28792 | 40629
4 | 9:01.55 | 2:37.00 | 40630 | 52404
5 | 11:38.55 | 3:19.62 | 52405 | 67391
6 | 14:58.42 | 3:21.73 | 67392 | 82539
7 | 18:20.40 | 3:21.72 | 82540 | 97686
8 | 21:42.37 | 2:50.40 | 97687 | 110476
9 | 24:33.02 | 7:00.50 | 110477 | 142026
10 | 31:33.52 | 6:21.60 | 142027 | 170661
11 | 37:55.37 | 6:04.23 | 170662 | 197984
12 | 43:59.60 | 8:50.72 | 197985 | 237806
13 | 52:50.57 | 5:26.50 | 237807 | 262306
14 | 58:17.32 | 5:06.65 | 262307 | 285321
Track 1
Filename C:\Rips\01 - Liberty Belle.wav
Pre-gap length 0:00:02.00
Peak level 98.8 %
Extraction speed 2.2 X
Track quality 100.0 %
Test CRC 38E8DA83
Copy CRC 38E8DA83
Accurately ripped (confidence 2) [BCB271CA] (AR v1)
Copy OK
Track 2
Filename C:\Rips\02 - Have You Met Miss Jones.wav
Pre-gap length 0:00:02.37
Peak level 98.8 %
Extraction speed 2.2 X
Track quality 99.9 %
Test CRC D4E507A4
Copy CRC D4E507A4
Accurately ripped (confidence 2) [68B6AAA4] (AR v1)
Copy OK
Track 3
Filename C:\Rips\03 - Isn't It Romantic.wav
Pre-gap length 0:00:02.40
Peak level 98.7 %
Extraction speed 2.6 X
Track quality 100.0 %
Test CRC AB21136C
Copy CRC AB21136C
Accurately ripped (confidence 2) [3087453C] (AR v1)
Copy OK
Track 4
Filename C:\Rips\04 - Traditional Blues.wav
Pre-gap length 0:00:02.13
Peak level 98.8 %
Extraction speed 2.3 X
Track quality 99.9 %
Test CRC 024BCB17
Copy CRC 024BCB17
Accurately ripped (confidence 2) [05ED1AB8] (AR v1)
Copy OK
Track 5
Filename C:\Rips\05 - Doe Eyes.wav
Pre-gap length 0:00:02.20
Peak level 98.8 %
Extraction speed 2.6 X
Track quality 99.9 %
Test CRC 0CA6EDF5
Copy CRC 0CA6EDF5
Accurately ripped (confidence 2) [C3F39543] (AR v1)
Copy OK
Track 6
Filename C:\Rips\06 - Red Devil.wav
Pre-gap length 0:00:02.20
Peak level 98.8 %
Extraction speed 3.2 X
Track quality 100.0 %
Test CRC 3DB695F8
Copy CRC 3DB695F8
Accurately ripped (confidence 2) [FA12622D] (AR v1)
Copy OK
Track 7
Filename C:\Rips\07 - Body and Soul.wav
Pre-gap length 0:00:02.73
Peak level 89.3 %
Extraction speed 3.3 X
Track quality 100.0 %
Test CRC 168CA82A
Copy CRC 168CA82A
Accurately ripped (confidence 2) [79522626] (AR v1)
Copy OK
Track 8
Filename C:\Rips\08 - Last Chance.wav
Pre-gap length 0:00:02.93
Peak level 83.1 %
Extraction speed 3.3 X
Track quality 100.0 %
Test CRC 0DCE3C02
Copy CRC 0DCE3C02
Accurately ripped (confidence 2) [65DF9515] (AR v1)
Copy OK
Track 9
Filename C:\Rips\09 - Arrowhead.wav
Pre-gap length 0:00:02.46
Peak level 98.8 %
Extraction speed 4.0 X
Track quality 100.0 %
Test CRC 04034366
Copy CRC 04034366
Accurately ripped (confidence 2) [A244CD45] (AR v1)
Copy OK
Track 10
Filename C:\Rips\10 - Street Swingers.wav
Pre-gap length 0:00:02.33
Peak level 93.1 %
Extraction speed 3.9 X
Track quality 99.9 %
Test CRC CFE5C7CC
Copy CRC CFE5C7CC
Accurately ripped (confidence 2) [342F8C89] (AR v1)
Copy OK
Track 11
Filename C:\Rips\11 - Hot Buttered Noodling.wav
Pre-gap length 0:00:02.22
Peak level 100.0 %
Extraction speed 4.5 X
Track quality 100.0 %
Test CRC 57BB7DB0
Copy CRC 57BB7DB0
Accurately ripped (confidence 2) [089EEC80] (AR v1)
Copy OK
Track 12
Filename C:\Rips\12 - Musicale Du Jour.wav
Pre-gap length 0:00:02.00
Peak level 100.0 %
Extraction speed 4.9 X
Track quality 100.0 %
Test CRC 2E3A8288
Copy CRC 2E3A8288
Accurately ripped (confidence 2) [DD8AC16D] (AR v1)
Copy OK
Track 13
Filename C:\Rips\13 - Raney Day.wav
Pre-gap length 0:00:01.96
Peak level 93.6 %
Extraction speed 4.5 X
Track quality 99.9 %
Test CRC D6AE5922
Copy CRC D6AE5922
Accurately ripped (confidence 2) [A7E15259] (AR v1)
Copy OK
Track 14
Filename C:\Rips\14 - Jupiter.wav
Pre-gap length 0:00:02.00
Peak level 98.8 %
Extraction speed 5.1 X
Track quality 100.0 %
Test CRC FC3B952F
Copy CRC FC3B952F
Accurately ripped (confidence 2) [A33C094A] (AR v1)
Copy OK
All tracks accurately ripped
No errors occurred
End of status report
---- CUETools DB Plugin V2.1.3
[CTDB TOCID: bz2O2BZU5SdQw5Et1KSf7NpW.b0-] disk not present in database, Submit result: bz2O2BZU5SdQw5Et1KSf7NpW.b0- has been uploaded
==== Log checksum 4A6C1854FC91E11F6165E0A4F7CDA47FB64F5B458AA1722064E881C46DD8023E ====
 
Лог создания рипа, CD2
Exact Audio Copy V1.0 beta 3 from 29. August 2011
EAC extraction logfile from 2. February 2012, 17:47
Bob Brookmeyer / Mosaic Select #9 (Disc 2 of 3)
Used drive : Optiarc DVD RW AD-7260S Adapter: 3 ID: 0
Read mode : Secure
Utilize accurate stream : Yes
Defeat audio cache : Yes
Make use of C2 pointers : No
Read offset correction : 48
Overread into Lead-In and Lead-Out : No
Fill up missing offset samples with silence : Yes
Delete leading and trailing silent blocks : No
Null samples used in CRC calculations : Yes
Used interface : Native Win32 interface for Win NT & 2000
Gap handling : Appended to previous track
Used output format : User Defined Encoder
Selected bitrate : 1024 kBit/s
Quality : High
Add ID3 tag : No
Command line compressor : C:\Program Files (x86)\Exact Audio Copy\Flac\flac.exe
Additional command line options : -8 -V -T "ARTIST=%artist%" -T "TITLE=%title%" -T "ALBUM=%albumtitle%" -T "DATE=%year%" -T "TRACKNUMBER=%tracknr%" -T "GENRE=%genre%" -T "PERFORMER=%albuminterpret%" -T "COMPOSER=%composer%" -T "ALBUMARTIST=%albumartist%" -T "DISCNUMBER=%cdnumber%" -T "TOTALDISCS=%totalcds%" -T "TOTALTRACKS=%numtracks%" -T "COMMENT=%comment%" %source% -o %dest%
TOC of the extracted CD
Track | Start | Length | Start sector | End sector
---------------------------------------------------------
1 | 0:00.00 | 5:29.67 | 0 | 24741
2 | 5:29.67 | 5:46.33 | 24742 | 50724
3 | 11:16.25 | 7:30.00 | 50725 | 84474
4 | 18:46.25 | 4:49.70 | 84475 | 106219
5 | 23:36.20 | 4:05.15 | 106220 | 124609
6 | 27:41.35 | 3:50.72 | 124610 | 141931
7 | 31:32.32 | 5:01.55 | 141932 | 164561
8 | 36:34.12 | 6:08.25 | 164562 | 192186
9 | 42:42.37 | 4:18.00 | 192187 | 211536
10 | 47:00.37 | 8:52.13 | 211537 | 251449
11 | 55:52.50 | 5:02.12 | 251450 | 274111
Track 1
Filename C:\Rips\01 - Louisana.wav
Pre-gap length 0:00:02.00
Peak level 86.2 %
Extraction speed 2.4 X
Track quality 100.0 %
Test CRC 399C084D
Copy CRC 399C084D
Track not present in AccurateRip database
Copy OK
Track 2
Filename C:\Rips\02 - Santa Claus Blues.wav
Pre-gap length 0:00:02.06
Peak level 91.7 %
Extraction speed 2.8 X
Track quality 100.0 %
Test CRC 244343DA
Copy CRC 244343DA
Track not present in AccurateRip database
Copy OK
Track 3
Filename C:\Rips\03 - Truckin'.wav
Pre-gap length 0:00:02.53
Peak level 98.8 %
Extraction speed 3.3 X
Track quality 100.0 %
Test CRC 6A2C4931
Copy CRC 6A2C4931
Track not present in AccurateRip database
Copy OK
Track 4
Filename C:\Rips\04 - Some Sweet Day.wav
Pre-gap length 0:00:02.13
Peak level 98.8 %
Extraction speed 3.4 X
Track quality 100.0 %
Test CRC 4AF9FFD4
Copy CRC 4AF9FFD4
Track not present in AccurateRip database
Copy OK
Track 5
Filename C:\Rips\05 - Sweet Like This.wav
Pre-gap length 0:00:02.73
Peak level 81.9 %
Extraction speed 3.6 X
Track quality 100.0 %
Test CRC F8793545
Copy CRC F8793545
Track not present in AccurateRip database
Copy OK
Track 6
Filename C:\Rips\06 - Jada.wav
Pre-gap length 0:00:01.86
Peak level 90.1 %
Extraction speed 3.7 X
Track quality 100.0 %
Test CRC 4DAD9A9D
Copy CRC 4DAD9A9D
Track not present in AccurateRip database
Copy OK
Track 7
Filename C:\Rips\07 - Don't Be That Way.wav
Pre-gap length 0:00:02.26
Peak level 79.7 %
Extraction speed 4.0 X
Track quality 100.0 %
Test CRC 08E18954
Copy CRC 08E18954
Track not present in AccurateRip database
Copy OK
Track 8
Filename C:\Rips\08 - Honeysuckle Rose.wav
Pre-gap length 0:00:02.13
Peak level 90.7 %
Extraction speed 4.3 X
Track quality 100.0 %
Test CRC 6E0485FA
Copy CRC 6E0485FA
Track not present in AccurateRip database
Copy OK
Track 9
Filename C:\Rips\09 - Brook's Blues.wav
Pre-gap length 0:00:02.22
Peak level 98.8 %
Extraction speed 4.3 X
Track quality 100.0 %
Test CRC A37988D6
Copy CRC A37988D6
Track not present in AccurateRip database
Copy OK
Track 10
Filename C:\Rips\10 - Slow Freight.wav
Pre-gap length 0:00:02.93
Peak level 94.8 %
Extraction speed 4.6 X
Track quality 99.9 %
Test CRC FC38F8BC
Copy CRC FC38F8BC
Track not present in AccurateRip database
Copy OK
Track 11
Filename C:\Rips\11 - The Sheik of Araby.wav
Pre-gap length 0:00:02.50
Peak level 100.0 %
Extraction speed 4.9 X
Track quality 100.0 %
Test CRC 29826E78
Copy CRC 29826E78
Track not present in AccurateRip database
Copy OK
None of the tracks are present in the AccurateRip database
No errors occurred
End of status report
---- CUETools DB Plugin V2.1.3
[CTDB TOCID: NEPn.D82vqnz.pjmkMXCP7UUwQo-] disk not present in database, Submit result: NEPn.D82vqnz.pjmkMXCP7UUwQo- has been uploaded
==== Log checksum EDFABC2ADC9174D10C323331DE9A3CB65A09FD98607A29CFC3D83F875FEC6265 ====
 
Лог создания рипа, CD3
Exact Audio Copy V1.0 beta 3 from 29. August 2011
EAC extraction logfile from 2. February 2012, 18:43
Bob Brookmeyer / Mosaic Select #9 (Disc 3 of 3)
Used drive : Optiarc DVD RW AD-7260S Adapter: 3 ID: 0
Read mode : Secure
Utilize accurate stream : Yes
Defeat audio cache : Yes
Make use of C2 pointers : No
Read offset correction : 48
Overread into Lead-In and Lead-Out : No
Fill up missing offset samples with silence : Yes
Delete leading and trailing silent blocks : No
Null samples used in CRC calculations : Yes
Used interface : Native Win32 interface for Win NT & 2000
Gap handling : Appended to previous track
Used output format : User Defined Encoder
Selected bitrate : 1024 kBit/s
Quality : High
Add ID3 tag : No
Command line compressor : C:\Program Files (x86)\Exact Audio Copy\Flac\flac.exe
Additional command line options : -8 -V -T "ARTIST=%artist%" -T "TITLE=%title%" -T "ALBUM=%albumtitle%" -T "DATE=%year%" -T "TRACKNUMBER=%tracknr%" -T "GENRE=%genre%" -T "PERFORMER=%albuminterpret%" -T "COMPOSER=%composer%" -T "ALBUMARTIST=%albumartist%" -T "DISCNUMBER=%cdnumber%" -T "TOTALDISCS=%totalcds%" -T "TOTALTRACKS=%numtracks%" -T "COMMENT=%comment%" %source% -o %dest%
TOC of the extracted CD
Track | Start | Length | Start sector | End sector
---------------------------------------------------------
1 | 0:00.00 | 8:02.47 | 0 | 36196
2 | 8:02.47 | 5:07.40 | 36197 | 59261
3 | 13:10.12 | 6:54.60 | 59262 | 90371
4 | 20:04.72 | 8:42.45 | 90372 | 129566
5 | 28:47.42 | 10:14.30 | 129567 | 175646
6 | 39:01.72 | 3:34.53 | 175647 | 191749
7 | 42:36.50 | 6:10.02 | 191750 | 219501
8 | 48:46.52 | 5:30.43 | 219502 | 244294
9 | 54:17.20 | 6:17.32 | 244295 | 272601
10 | 60:34.52 | 4:41.35 | 272602 | 293711
11 | 65:16.12 | 6:56.05 | 293712 | 324916
12 | 72:12.17 | 6:42.00 | 324917 | 355066
Track 1
Filename C:\Rips\01 - Jumpin' At the Woodside.wav
Pre-gap length 0:00:02.00
Peak level 99.9 %
Extraction speed 2.8 X
Track quality 100.0 %
Test CRC 0F9873E3
Copy CRC 0F9873E3
Accurately ripped (confidence 2) [35982EAB] (AR v1)
Copy OK
Track 2
Filename C:\Rips\02 - A Blues (What's On Your Mind).wav
Pre-gap length 0:00:02.29
Peak level 86.6 %
Extraction speed 3.1 X
Track quality 100.0 %
Test CRC FB858598
Copy CRC FB858598
Accurately ripped (confidence 2) [8FC7BA6F] (AR v1)
Copy OK
Track 3
Filename C:\Rips\03 - Blue and Sentimental.wav
Pre-gap length 0:00:02.22
Peak level 85.7 %
Extraction speed 3.5 X
Track quality 100.0 %
Test CRC 594ACB6B
Copy CRC 594ACB6B
Accurately ripped (confidence 2) [7F1BDC0C] (AR v1)
Copy OK
Track 4
Filename C:\Rips\04 - Doggin' Around.wav
Pre-gap length 0:00:01.40
Peak level 98.4 %
Extraction speed 3.9 X
Track quality 100.0 %
Test CRC 0950FDC8
Copy CRC 0950FDC8
Accurately ripped (confidence 2) [B9594B47] (AR v1)
Copy OK
Track 5
Filename C:\Rips\05 - Moten Swing.wav
Pre-gap length 0:00:02.76
Peak level 90.6 %
Extraction speed 4.4 X
Track quality 100.0 %
Test CRC 42453B99
Copy CRC 42453B99
Accurately ripped (confidence 2) [B99FCC0F] (AR v1)
Copy OK
Track 6
Filename C:\Rips\06 - Trav'lin' Light.wav
Pre-gap length 0:00:02.13
Peak level 91.6 %
Extraction speed 4.2 X
Track quality 100.0 %
Test CRC EF8A1F4A
Copy CRC EF8A1F4A
Accurately ripped (confidence 2) [41043BBA] (AR v1)
Copy OK
Track 7
Filename C:\Rips\07 - Stretching Out.wav
Pre-gap length 0:00:02.33
Peak level 98.8 %
Extraction speed 4.7 X
Track quality 100.0 %
Test CRC 136A83C3
Copy CRC 136A83C3
Accurately ripped (confidence 2) [0E8927B4] (AR v1)
Copy OK
Track 8
Filename C:\Rips\08 - Now You Will Be Good.wav
Pre-gap length 0:00:02.53
Peak level 98.8 %
Extraction speed 4.9 X
Track quality 100.0 %
Test CRC FD92DD72
Copy CRC FD92DD72
Accurately ripped (confidence 2) [85A51A9A] (AR v1)
Copy OK
Track 9
Filename C:\Rips\09 - Pennies From Heaven.wav
Pre-gap length 0:00:02.46
Peak level 93.3 %
Extraction speed 5.1 X
Track quality 100.0 %
Test CRC FE453815
Copy CRC FE453815
Accurately ripped (confidence 2) [6235C7A7] (AR v1)
Copy OK
Track 10
Filename C:\Rips\10 - King Porter Stomps.wav
Pre-gap length 0:00:02.16
Peak level 93.3 %
Extraction speed 5.1 X
Track quality 100.0 %
Test CRC BA111789
Copy CRC BA111789
Accurately ripped (confidence 2) [C7E7D293] (AR v1)
Copy OK
Track 11
Filename C:\Rips\11 - Ain't Misbehavin'.wav
Pre-gap length 0:00:02.56
Peak level 98.8 %
Extraction speed 5.5 X
Track quality 100.0 %
Test CRC 5826F435
Copy CRC 5826F435
Accurately ripped (confidence 2) [3E7CE6C7] (AR v1)
Copy OK
Track 12
Filename C:\Rips\12 - Bee Kay.wav
Pre-gap length 0:00:01.82
Suspicious position 0:06:27
Peak level 100.0 %
Extraction speed 1.3 X
Track quality 99.5 %
Test CRC 953F471C
Copy CRC FEB16880
Track not present in AccurateRip database
Copy finished
11 track(s) accurately ripped
1 track(s) not present in the AccurateRip database
Some tracks could not be verified as accurate
There were errors
End of status report
---- CUETools DB Plugin V2.1.3
[CTDB TOCID: KcEWoo_EhEupDklgXTzmwSi3W9c-] disk not present in database, Submit result: insufficient quality
==== Log checksum 6EF82AB808DBAC189774887C9E112A98FB4AFF51C8E4CA6C63823CB24ED3B854 ====
 
Содержание индексной карты (.CUE), CD1
REM GENRE Jazz
REM DISCID B00EDC0E
REM COMMENT "ExactAudioCopy v1.0b3"
FILE "01 - Liberty Belle.wav" WAVE
TRACK 01 AUDIO
INDEX 01 00:00:00
TRACK 02 AUDIO
INDEX 00 02:47:07
FILE "02 - Have You Met Miss Jones.wav" WAVE
INDEX 01 00:00:00
TRACK 03 AUDIO
INDEX 00 03:32:02
FILE "03 - Isn't It Romantic.wav" WAVE
INDEX 01 00:00:00
TRACK 04 AUDIO
INDEX 00 02:35:53
FILE "04 - Traditional Blues.wav" WAVE
INDEX 01 00:00:00
TRACK 05 AUDIO
INDEX 00 02:34:60
FILE "05 - Doe Eyes.wav" WAVE
INDEX 01 00:00:00
TRACK 06 AUDIO
INDEX 00 03:17:47
FILE "06 - Red Devil.wav" WAVE
INDEX 01 00:00:00
TRACK 07 AUDIO
INDEX 00 03:19:18
FILE "07 - Body and Soul.wav" WAVE
INDEX 01 00:00:00
TRACK 08 AUDIO
INDEX 00 03:19:02
FILE "08 - Last Chance.wav" WAVE
INDEX 01 00:00:00
TRACK 09 AUDIO
INDEX 00 02:48:05
FILE "09 - Arrowhead.wav" WAVE
INDEX 01 00:00:00
TRACK 10 AUDIO
INDEX 00 06:58:25
FILE "10 - Street Swingers.wav" WAVE
INDEX 01 00:00:00
TRACK 11 AUDIO
INDEX 00 06:19:43
FILE "11 - Hot Buttered Noodling.wav" WAVE
INDEX 01 00:00:00
TRACK 12 AUDIO
INDEX 00 06:02:23
FILE "12 - Musicale Du Jour.wav" WAVE
INDEX 01 00:00:00
TRACK 13 AUDIO
INDEX 00 08:49:00
FILE "13 - Raney Day.wav" WAVE
INDEX 01 00:00:00
TRACK 14 AUDIO
INDEX 00 05:24:50
FILE "14 - Jupiter.wav" WAVE
INDEX 01 00:00:00
 
Содержание индексной карты (.CUE), CD2
REM GENRE Jazz
REM DISCID 9E0E460B
REM COMMENT "ExactAudioCopy v1.0b3"
FILE "01 - Louisana.wav" WAVE
TRACK 01 AUDIO
INDEX 01 00:00:00
TRACK 02 AUDIO
INDEX 00 05:27:62
FILE "02 - Santa Claus Blues.wav" WAVE
INDEX 01 00:00:00
TRACK 03 AUDIO
INDEX 00 05:43:68
FILE "03 - Truckin'.wav" WAVE
INDEX 01 00:00:00
TRACK 04 AUDIO
INDEX 00 07:27:65
FILE "04 - Some Sweet Day.wav" WAVE
INDEX 01 00:00:00
TRACK 05 AUDIO
INDEX 00 04:47:15
FILE "05 - Sweet Like This.wav" WAVE
INDEX 01 00:00:00
TRACK 06 AUDIO
INDEX 00 04:03:25
FILE "06 - Jada.wav" WAVE
INDEX 01 00:00:00
TRACK 07 AUDIO
INDEX 00 03:48:52
FILE "07 - Don't Be That Way.wav" WAVE
INDEX 01 00:00:00
TRACK 08 AUDIO
INDEX 00 04:59:45
FILE "08 - Honeysuckle Rose.wav" WAVE
INDEX 01 00:00:00
TRACK 09 AUDIO
INDEX 00 06:06:08
FILE "09 - Brook's Blues.wav" WAVE
INDEX 01 00:00:00
TRACK 10 AUDIO
INDEX 00 04:15:05
FILE "10 - Slow Freight.wav" WAVE
INDEX 01 00:00:00
TRACK 11 AUDIO
INDEX 00 08:49:50
FILE "11 - The Sheik of Araby.wav" WAVE
INDEX 01 00:00:00
 
Содержание индексной карты (.CUE), CD3
REM GENRE Jazz
REM DISCID BD127E0C
REM COMMENT "ExactAudioCopy v1.0b3"
FILE "01 - Jumpin' At the Woodside.wav" WAVE
TRACK 01 AUDIO
INDEX 01 00:00:00
TRACK 02 AUDIO
INDEX 00 08:00:25
FILE "02 - A Blues (What's On Your Mind).wav" WAVE
INDEX 01 00:00:00
TRACK 03 AUDIO
INDEX 00 05:05:23
FILE "03 - Blue and Sentimental.wav" WAVE
INDEX 01 00:00:00
TRACK 04 AUDIO
INDEX 00 06:53:30
FILE "04 - Doggin' Around.wav" WAVE
INDEX 01 00:00:00
TRACK 05 AUDIO
INDEX 00 08:39:63
FILE "05 - Moten Swing.wav" WAVE
INDEX 01 00:00:00
TRACK 06 AUDIO
INDEX 00 10:12:20
FILE "06 - Trav'lin' Light.wav" WAVE
INDEX 01 00:00:00
TRACK 07 AUDIO
INDEX 00 03:32:28
FILE "07 - Stretching Out.wav" WAVE
INDEX 01 00:00:00
TRACK 08 AUDIO
INDEX 00 06:07:37
FILE "08 - Now You Will Be Good.wav" WAVE
INDEX 01 00:00:00
TRACK 09 AUDIO
INDEX 00 05:28:08
FILE "09 - Pennies From Heaven.wav" WAVE
INDEX 01 00:00:00
TRACK 10 AUDIO
INDEX 00 06:15:20
FILE "10 - King Porter Stomps.wav" WAVE
INDEX 01 00:00:00
TRACK 11 AUDIO
INDEX 00 04:38:68
FILE "11 - Ain't Misbehavin'.wav" WAVE
INDEX 01 00:00:00
TRACK 12 AUDIO
INDEX 00 06:54:18
FILE "12 - Bee Kay.wav" WAVE
INDEX 01 00:00:00
Доп. информация:
http://www.discogs.com/Bob-Brookmeyer-Mosaic-Select/release/4049283
#1-1 to 1-8
Recorded at the Van Gelder Studio, Hackensack, NJ on July 5 (#1-1, 1-2, 1-4) and July 7 (#1-3, 1-5 to 1-8), 1954
Originally issued on THE BOB BROOKMEYER QUARTET (Pacific Jazz 10” LP 16.)
#2-1 to 2-11
Recorded at Coastal Studios, New York City on July 13 (#2-1, 2-2, 2-4 to 2-7, 2-11) and July 16 (#2-3, 2-8 to 2-10), 1957.
“Brook’s Blues” and the full version of “Slow Freight” originally issued on BOB BROOKMEYER (Crown CST 318)
“The Sheik Of Araby” originally issued on THE PLAYBOY JAZZ ALLSTARS (Playboy PB-1959)
All others originally issued as TRADITIONALISM REVISITED by Bob Brookmeyer (Pacific Jazz PJ-1233)
#1-9 to 1-14
Recorded at Coastal Studios, New York City on December 13 & 16, 1957
Originally issued as STREET SWINGERS (World Pacific PJ-1239)
#3-1 to 3-6
Recorded at Olmsted Studios, New York City on October 23, 1958
Originally issued as KANSAS CITY REVISITED (United Artists UAS-5008)
#3-7 to 3-12
Recorded at Nola Penthouse Studio, New York City on December 27, 1958
Originally issued on STRETCHING OUT (United Artists UAS-5023)
The last tune on disc two and all of disc three are stereo.
Note: The occasional instances of distortion are in the original master sources.
 
Об исполнителе (группе)
http://www.allmusic.com/artist/bob-brookmeyer-mn0000051233/biography
Artist Biography by Scott Yanow
Old FriendsBob Brookmeyer was long considered one of the top valve trombonists in jazz and a very advanced arranger whose writing was influenced by modern classical music. He started out as a pianist in dance bands but played valve trombone with Stan Getz (1953). He gained fame as a member of the Gerry Mulligan quartet (1954-1957), was part of the unusual Jimmy Giuffre Three of 1957-1958 (which consisted of Giuffre's reeds, Brookmeyer's valve trombone, and Jim Hall's guitar), and then re-joined Mulligan as arranger and occasional player with his Concert Jazz Band. Brookmeyer, who was a strong enough pianist to hold his own on a two-piano date with Bill Evans, occasionally switched to piano with Mulligan. He co-led a part-time quintet with Clark Terry (1961-1966), was an original member of the Thad Jones/Mel Lewis orchestra (1965-1967), and became a busy studio musician. Brookmeyer was fairly inactive during much of the '70s, but made a comeback in the late '70s with some very advanced arrangements for the Mel Lewis band (of which he became musical director for a time). Brookmeyer moved to Europe, where he continually wrote and occasionally recorded on his distinctive valve trombone, issuing Old Friends in 1998. New Works Celebration appeared a year later, and in 2000 he issued Together. Brookmeyer continued to perform and release albums through the next decade, often working with his European big band The New Art Orchestra including 2002's Waltzing with Zoe, 2004's Get Well Soon, and 2007's Spirit Music. In 2008, he explored his deep interest in classical music with Music for String Quartet and Orchestra. He wrote innovative big-band compositions and was highly regarded as a teacher: his classes at the New England Conservatory of Music are the stuff of legend. On December 15, 2011, Brookmeyer died in his sleep at a hospital near his home in Grantham, New Hampshire; the cause was congestive heart failure. He passed just a month after releasing the album Standards via the ArtistShare website, and only three days shy of his 82nd birthday.
 
Об альбоме (сборнике)
http://www.allmusic.com/album/mosaic-select-bob-brookmeyer-mw0000527795
AllMusic Review by Thom Jurek
The Bob Brookmeyer volume in the Mosaic Select series is one of the more enlightening issues in that it not only includes his little-known debut quartet sides for Pacific Jazz in 1954, featuring Red Mitchell, but more importantly, brings back into print his classic Traditionalism Revisited, Street Swingers, and Kansas City Revisited albums from 1957 and 1958. These sides in particular showcased Brookmeyer's fantastic compositional and arrangement skills even better than his work with Gerry Mulligan. Some of the players on these sessions include Jimmy Giuffre, Jim Hall, Ralph Pena, Jimmy Raney, Paul Quinichette, and Dave Bailey. Brookmeyer was a complete traditionalist, but an unusual harmonist. His charts extrapolated the essence and melodic purity of the earlier jazz material and read it into the advanced harmonic theories of the day on the West Coast, as well as brought it's "cool" ambience to the proceedings -- whether the tempo was up or down. In addition to this music, there are tracks that first saw the light of day on the Playboy Jazz All Stars compilation, and Brookmeyer's self-titled album on Crown. The Street Swingers disc, in particular, with its quintet setting putting Hall, Raney, and Brookmeyer on the frontline, is a masterpiece. Also from 1958 is the Stretching Out album originally issued on United Artists with Zoot Sims and Al Cohn, as well as Hank Jones, Charlie Persip, and Freddie Green on guitar. This is a smoking, wonderfully up-tempo session full of many colors and textures, and showcases Brookmeyer's charts at his developmental peak. In all, there are the four complete albums, some alternate takes, and compilation sides, making this essential for not only Brookmeyer fans, but West Coast jazz collectors as well.
http://www.allaboutjazz.com/mosaic-select-9-bob-brookmeyer-by-c-andrew-hovan.php
Although he continues to be a valued jazz artist recording occasionally, the state of Bob Brookmeyer's early catalog until recently was inexplicably in a state of disarray. Of course, we still haven't seen CD reissues of such vintage Verve sides like The Blues, Hot and Cold or the Mercury set Jazz Is a Kick, but things have been looking up since the appearance of this new Select reissue that brings together several choice albums including his previously hard-to-come-by United Artists dates from 1958.
This three-disc set starts with a 1954 Pacific Jazz session that was issued on a 10-inch LP called The Bob Brookmeyer Quartet and has never subsequently been reissued in full until now. Recorded superbly by Rudy Van Gelder, Brookmeyer produced this date himself and while the tunes are nothing fancy, Brookmeyer is up front in dashing form. Even at this early stage in his career, the valve trombonist comes off as a mature soloist with a rich and sonorous timbre that owes as much to the swing heroes of the day as the bebop language that was in vogue at the time.
Filling out the first disc are the half dozen tracks that find Brookmeyer in a unique line-up with guitarists Jim Hall and Jimmy Raney. Released in 1957 on Pacific Jazz as The Street Swingers, this equally rare set not only stands apart due to its unusual front line but for a strong set of originals by Hall, Raney, and Brookmeyer. Hall returns to the fold for Traditionalism Revisited , one of the trombonist's better known items and one that boasts a cool spirit due in no small part to the presence of Jimmy Giuffre. Even swing era ditties like "Jada" and "The Sheik of Araby" sound positively transformed by these forward-thinking talents.
The real meat of this set is to be found in the two 1958 sets that Brookmeyer cut for United Artists which were released and quickly disappeared, making them expensive and highly sought collector's items for many decades now. With a decided Basieish quality, Kansas City Revisited finds Brookmeyer working a small band that boasts a big sound thanks to the efforts of tenor saxophonists Al Cohn and Paul Quinichette. "Doggin' Around," "Moten Swing," and "Jumpin' at the Woodside," come directly from the Count's book but Brookmeyer manages to put something new into these adaptations. Weighing in with his own take on Big Joe Turner and other blues belters who fronted the Basie Band, Clarence "Big" Miller shouts and struts his stuff on "What's On Your Mind" and "Trav'lin' Light."
It's a similar ensemble that our leading man fronts for Stretching Out , but with the addition of Harry 'Sweets' Edison on trumpet and Basieites Freddie Green and Eddie Jones. From the standpoint of the material, this session steps away from the Basie theme, but the music is still of a swinging variety (ranging from "King Porter Stomp" to Bill Potts' "Bee Kay") and we hear more great solo work from Brookmeyer, Al Cohn, Zoot Sims, Hank Jones, and Brookmeyer himself. Tapping a segment of Brookmeyer's legacy that was all but untouched in modern times, this set is a must-have for fans of the trombonist as well as those who dig the big band sounds.
 
Состав
A) Bob Brookmeyer, valve trombone;
John Williams, piano;
Bill Anthony (A1), Red Mitchell (A2), bass;
Frank Isola, drums.
Recorded at the Van Gelder Studio, Hackensack, NJ on July 5 (A1) and July 7 (A2), 1954
Recording engineer: Rudy Van Gelder
Produced by Bob Brookmeyer
Originally issued on THE BOB BROOKMEYER QUARTET (Pacific Jazz 10" LP 16).
(B) Bob Brookmeyer, valve trombone, piano;
Jimmy Giuffre, clarinet, tenor sax, baritone sax;
Jim Hall, guitar,
Joe Benjamin (B1), Ralph Pena (B2), bass;
Dave Bailey, drums.
Recorded at Coastal Studios, New York City on July 13 (Bl) and July 16 (B2), 1957
Engineer: Al Schmitt
Produced by Richard Bock
Brook's Blues and the full version of Slow Freight originally issued on BOB BROOKMEYER (Crown CST 318).
The Sheik of Araby originally issued on THE PLAYBOY JAZZ ALLSTARS (Playboy PB-1959).
All others originally issued as TRADITIONALISM REVISITED by Bob Brookmeyer (Pacific Jazz PJ-1 233).
(C) Bob Brookmeyer, valve trombone, piano;
Jim Hall, Jimmy Raney, guitar,
Bill Crow, bass;
Osie Johnson, drums.
Recorded at Coastal Studios, New York City on December 13 & 16, 1957.
Engineer: Al Schmitt.
Produced by Richard Bock.
Originally issued as STREET SWINGERS (World Pacific PJ-1239).
(D) Bob Brookmeyer, valve trombone;
Al Cohn, Paul Quinichette, tenor sax;
Nat Pierce, piano;
Jim Hall, guitar;
Addison Farmer, bass;
Osie Johnson, drums;
Big Miller, vocal (on “A Blues” and “Trav’lin’ Light”).
Recorded at Olmsted Studios, New York City on October 23, 1958.
Recording engineer: Dick Olmsted.
Produced by Jack Lewis.
Originally issued as KANSAS CITY REVISITED (United Artists UAS-5008).
(E) Harry Sweets Edison, trumpet,
Bob Brookmeyer, valve trombone;
Zoot Sims, tenor sax;
Al Cohn, tenor sax, baritone sax;
Hank Jones, piano;
Freddie Green, guitar;
Eddie Jones, bass;
Charlie Persip, drums.
Recorded at Nola Penthouse Studio, New York City on December 27, 1958
Recording engineer: Tommy Nola.
Produced by Jack Lewis.
Arranged by Al Cohn (“Pennies From Heaven”), Bill Potts (“Bee Kay”) and Bob Brookmeyer (all others).
Originally issued on STRETCHING OUT (United Artists UAS-5023).
Any questions - support@pro-jazz.com.
Есть вопросы - support@pro-jazz.com
03:37
342
Нет комментариев. Ваш будет первым!