Поиск

(Bop, Cool) Andre Previn's Trio Jazz - King Size! - 1958 (2001 Japan Edition), FLAC (tracks+.cue), lossless

(Bop, Cool) Andre Previn's Trio Jazz - King Size! - 1958 (2001 Japan Edition), FLAC (tracks+.cue), lossless
Треклист:
Andre Previn's Trio Jazz - King Size!
Жанр: Bop, Cool
Страна-производитель диска: Япония
Год издания: 2001
Издатель (лейбл): Contemporary
Номер по каталогу: VICJ-60800
Страна: США
Аудиокодек: FLAC (*.flac)
Тип рипа: tracks+.cue
Битрейт аудио: lossless
Продолжительность: 45:59
Источник (релизер): JJKWCD (what)
Наличие сканов в содержимом раздачи: да
Треклист:
01. I'll Remember April (Raye-DePaul-Johnston) - 6:25
02. Much Too Late (Previn) - 9:31
03. You'd Be So Nice to Come Home To (Porter) - 7:04
04. It Could Happen to You (Van Heusen-Burke) - 5:57
05. Low and Inside (Previn) - 9:00
06. I'm Beginning to See the Light (George-Hodges-James-Ellington) - 8:02
Состав:
Andre Previn - piano
Red Mitchell - bass
Frankie Capp - drums
Recorded at Contemporary Records' Studio, Los Angeles on November 26, 1958.
 
Лог создания рипа
Exact Audio Copy V1.0 beta 3 from 29. August 2011
EAC extraction logfile from 15. August 2013, 18:24
André Previn's Trio Jazz / King Size!
Used drive : HL-DT-STDVDRAM GH24NS50 Adapter: 2 ID: 1
Read mode : Secure
Utilize accurate stream : Yes
Defeat audio cache : Yes
Make use of C2 pointers : No
Read offset correction : 667
Overread into Lead-In and Lead-Out : No
Fill up missing offset samples with silence : Yes
Delete leading and trailing silent blocks : No
Null samples used in CRC calculations : Yes
Used interface : Native Win32 interface for Win NT & 2000
Gap handling : Appended to previous track
Used output format : User Defined Encoder
Selected bitrate : 1024 kBit/s
Quality : High
Add ID3 tag : No
Command line compressor : D:\Program Files\FLAC\flac.exe
Additional command line options : -8 -V -T "ARTIST=%artist%" -T "TITLE=%title%" -T "ALBUM=%albumtitle%" -T "DATE=%year%" -T "TRACKNUMBER=%tracknr%" -T "GENRE=%genre%" -T "PERFORMER=%albuminterpret%" -T "COMPOSER=%composer%" %haslyrics%--tag-from-file=LYRICS="%lyricsfile%"%haslyrics% -T "ALBUMARTIST=%albumartist%" -T "DISCNUMBER=%cdnumber%" -T "TOTALDISCS=%totalcds%" -T "TOTALTRACKS=%numtracks%" -T "COMMENT=%comment%" %source% -o %dest%
TOC of the extracted CD
Track | Start | Length | Start sector | End sector
---------------------------------------------------------
1 | 0:00.00 | 6:24.50 | 0 | 28849
2 | 6:24.50 | 9:30.48 | 28850 | 71647
3 | 15:55.23 | 7:04.05 | 71648 | 103452
4 | 22:59.28 | 5:56.50 | 103453 | 130202
5 | 28:56.03 | 8:59.40 | 130203 | 170667
6 | 37:55.43 | 8:01.40 | 170668 | 206782
Track 1
Filename D:\01 - I'll Remember April.wav
Pre-gap length 0:00:02.00
Peak level 97.9 %
Extraction speed 1.1 X
Track quality 100.0 %
Test CRC 5899E541
Copy CRC 5899E541
Accurately ripped (confidence 2) [6370E6FE] (AR v1)
Copy OK
Track 2
Filename D:\02 - Much Too Late.wav
Pre-gap length 0:00:02.34
Peak level 97.9 %
Extraction speed 1.4 X
Track quality 100.0 %
Test CRC F8CC64FB
Copy CRC F8CC64FB
Accurately ripped (confidence 2) [57657768] (AR v1)
Copy OK
Track 3
Filename D:\03 - You'd Be So Nice to Come Home To.wav
Pre-gap length 0:00:02.34
Peak level 97.9 %
Extraction speed 1.5 X
Track quality 100.0 %
Test CRC 9078732B
Copy CRC 9078732B
Accurately ripped (confidence 2) [55D3BBC8] (AR v1)
Copy OK
Track 4
Filename D:\04 - It Could Happen to You.wav
Pre-gap length 0:00:02.34
Peak level 97.9 %
Extraction speed 1.7 X
Track quality 100.0 %
Test CRC 1D8DD693
Copy CRC 1D8DD693
Accurately ripped (confidence 2) [CCE0668C] (AR v1)
Copy OK
Track 5
Filename D:\05 - Low and Inside.wav
Pre-gap length 0:00:02.34
Peak level 97.9 %
Extraction speed 1.9 X
Track quality 100.0 %
Test CRC B9AD8BF0
Copy CRC B9AD8BF0
Accurately ripped (confidence 2) [2938F92A] (AR v1)
Copy OK
Track 6
Filename D:\06 - I'm Beginning to See the Light.wav
Pre-gap length 0:00:02.34
Peak level 97.9 %
Extraction speed 2.0 X
Track quality 100.0 %
Test CRC 7577BDEE
Copy CRC 7577BDEE
Accurately ripped (confidence 2) [36B73D58] (AR v1)
Copy OK
All tracks accurately ripped
No errors occurred
End of status report
---- CUETools DB Plugin V2.1.3
[CTDB TOCID: 7aXCsAbmbxJYsfMMpiuM0ypuTak-] disk not present in database, Submit result: 7aXCsAbmbxJYsfMMpiuM0ypuTak- has been uploaded
==== Log checksum 1314BD04E7431B0294F9F09365B05EF7F97800411ED1C1C3DAC0DC16F718CC6B ====
 
Содержание индексной карты (.CUE)
REM GENRE Jazz
REM DATE 1958
REM DISCID 5A0AC506
REM COMMENT "ExactAudioCopy v1.0b3"
CATALOG 4988002415328
PERFORMER "Andre Previn's Trio Jazz"
TITLE "King Size!"
FILE "01 - I'll Remember April.wav" WAVE
TRACK 01 AUDIO
TITLE "I'll Remember April"
PERFORMER "Andre Previn's Trio Jazz"
INDEX 01 00:00:00
TRACK 02 AUDIO
TITLE "Much Too Late"
PERFORMER "Andre Previn's Trio Jazz"
INDEX 00 06:22:16
FILE "02 - Much Too Late.wav" WAVE
INDEX 01 00:00:00
TRACK 03 AUDIO
TITLE "You'd Be So Nice to Come Home To"
PERFORMER "Andre Previn's Trio Jazz"
INDEX 00 09:28:14
FILE "03 - You'd Be So Nice to Come Home To.wav" WAVE
INDEX 01 00:00:00
TRACK 04 AUDIO
TITLE "It Could Happen to You"
PERFORMER "Andre Previn's Trio Jazz"
INDEX 00 07:01:46
FILE "04 - It Could Happen to You.wav" WAVE
INDEX 01 00:00:00
TRACK 05 AUDIO
TITLE "Low and Inside"
PERFORMER "Andre Previn's Trio Jazz"
INDEX 00 05:54:16
FILE "05 - Low and Inside.wav" WAVE
INDEX 01 00:00:00
TRACK 06 AUDIO
TITLE "I'm Beginning to See the Light"
PERFORMER "Andre Previn's Trio Jazz"
INDEX 00 08:57:06
FILE "06 - I'm Beginning to See the Light.wav" WAVE
INDEX 01 00:00:00
 
Отчет CUETools
[CUETools log; Date: 12.09.2013 23:30:44; Version: 2.1.4]
[CTDB TOCID: 7aXCsAbmbxJYsfMMpiuM0ypuTak-] found.
Track | CTDB Status
1 | (1/1) Accurately ripped
2 | (1/1) Accurately ripped
3 | (1/1) Accurately ripped
4 | (1/1) Accurately ripped
5 | (1/1) Accurately ripped
6 | (1/1) Accurately ripped
[AccurateRip ID: 000adbb5-003a1ec1-5a0ac506] found.
Track [ CRC | V2 ] Status
01 [6370e6fe|0383e345] (2+0/2) Accurately ripped
02 [57657768|dfbebe2a] (2+0/2) Accurately ripped
03 [55d3bbc8|da20ec5e] (2+0/2) Accurately ripped
04 [cce0668c|6b62b58c] (2+0/2) Accurately ripped
05 [2938f92a|1449aa5d] (2+0/2) Accurately ripped
06 [36b73d58|564e0a19] (2+0/2) Accurately ripped
Track Peak [ CRC32 ] [W/O NULL] [ LOG ]
-- 97,9 [D077347F] [F06E9134]
01 97,9 [5899E541] [72EBF78B] CRC32
02 97,9 [F8CC64FB] [079846DD] CRC32
03 97,9 [9078732B] [8964E6E8] CRC32
04 97,9 [1D8DD693] [5D66606B] CRC32
05 97,9 [B9AD8BF0] [8186154C] CRC32
06 97,9 [7577BDEE] [D9066FB4] CRC32
 
Review by Scott Yanow
The multi-talented Andre Previn is heard on this recording as the leader of a trio with bassist Red Mitchell and drummer Frankie Capp. Previn always had his own swing/bop piano style, and he is in top form on two of his originals (including the bluish "Much Too Late") and four superior standards. This fine release gives one an excellent example of Previn's skills as a jazz pianist.
По всем вопросам пишите личное сообщение пользователю M0p94ok.
06:49
344
Нет комментариев. Ваш будет первым!