Поиск

(Bop) [CD] Great Guitars (w/ Charlie Byrd, Barney Kessel, Herb Ellis) - Great Guitars Live {Great Guitars at the Winery (1980), Great Guitars at Charlie's Georgetown (1982)} (2CD) - 2001, FLAC (tracks+.cue), lossless

(Bop) [CD] Great Guitars (w/ Charlie Byrd, Barney Kessel, Herb Ellis) - Great Guitars Live {Great Guitars at the Winery (1980), Great Guitars at Charlie's Georgetown (1982)} (2CD) - 2001, FLAC (tracks+.cue), lossless
Треклист:
Great Guitars - Great Guitars Live
Жанр: Bop
Носитель: CD
Страна-производитель диска: США
Год издания: 2001
Издатель (лейбл): Concord
Номер по каталогу: CCD2-4958-2
Аудиокодек: FLAC (*.flac)
Тип рипа: tracks+.cue
Битрейт аудио: lossless
Продолжительность: 1:33:25
Источник (релизер): disorderian (what)
Наличие сканов в содержимом раздачи: нет
 
CD1 - Great Guitars at the Winery {44:26}
Great Guitars - Great Guitars at the Winery (1980)
01. Broadway (DeSylva-Brown-Henderson) - 5:44
02. Air Mail Special (Mundy-Goodman-Christian) - 4:55
03. Body and Soul (Green-Heyman-Sour-Eyton) - 4:51
04. You Took Advantage of Me (Rodgers-Hart) - 2:53
05. So Danco Samba (Jobim-De Moraes) - 4:31
06. Sheik of Araby (Smith-Wheeler-Snyder) - 5:26
07. Strighten Up and Fly Right (Cole-Mills) - 5:43
08. Just in Time (Comden-Green-Styne) - 3:37
09. The Talk of the Town (Kahn-Cohn) - 6:46
Состав:
Charlie Byrd, Barney Kessel, Herb Ellis - guitar
Joe Byrd - bass
Jimmie Smith - drums
Recorded live at the Paul Masson Mountain Winery, Saratoga, CA in July 1980.
 
 
Лог создания рипа
Exact Audio Copy V1.0 beta 3 from 29. August 2011
EAC extraction logfile from 11. December 2013, 2:24
The Great Guitars / Great Guitars at the Winery
Used drive  : PLEXTOR DVDR   PX-L890SA   Adapter: 0  ID: 0
Read mode               : Secure
Utilize accurate stream : Yes
Defeat audio cache      : Yes
Make use of C2 pointers : No
Read offset correction                      : 6
Overread into Lead-In and Lead-Out          : No
Fill up missing offset samples with silence : Yes
Delete leading and trailing silent blocks   : No
Null samples used in CRC calculations       : Yes
Used interface                              : Native Win32 interface for Win NT & 2000
Gap handling                                : Appended to previous track
Used output format              : User Defined Encoder
Selected bitrate                : 896 kBit/s
Quality                         : High
Add ID3 tag                     : No
Command line compressor         : C:\Program Files (x86)\FLAC\flac.exe
Additional command line options : -8 -V -T "ARTIST=%artist%" -T "TITLE=%title%" -T "ALBUM=%albumtitle%" -T "DATE=%year%" -T "TRACKNUMBER=%tracknr%" -T "GENRE=%genre%" -T "PERFORMER=%albuminterpret%" -T "COMPOSER=%composer%" %haslyrics%--tag-from-file=LYRICS="%lyricsfile%"%haslyrics% -T "ALBUMARTIST=%albumartist%" -T "DISCNUMBER=%cdnumber%" -T "TOTALDISCS=%totalcds%" -T "TOTALTRACKS=%numtracks%" -T "COMMENT=%comment%" %source% -o %dest%
TOC of the extracted CD
     Track |   Start  |  Length  | Start sector | End sector
    ---------------------------------------------------------
        1  |  0:00.00 |  5:43.57 |         0    |    25781
        2  |  5:43.57 |  4:54.38 |     25782    |    47869
        3  | 10:38.20 |  4:51.02 |     47870    |    69696
        4  | 15:29.22 |  2:53.10 |     69697    |    82681
        5  | 18:22.32 |  4:30.55 |     82682    |   102986
        6  | 22:53.12 |  5:25.60 |    102987    |   127421
        7  | 28:18.72 |  5:43.35 |    127422    |   153181
        8  | 34:02.32 |  3:37.13 |    153182    |   169469
        9  | 37:39.45 |  6:46.35 |    169470    |   199954
Track  1
     Filename E:\PT\The Great Guitars - The Great Guitars Live\Disc 1of2\01.Broadway (live).wav
     Pre-gap length  0:00:02.00
     Peak level 79.2 %
     Extraction speed 3.8 X
     Track quality 100.0 %
     Test CRC FB201AB3
     Copy CRC FB201AB3
     Accurately ripped (confidence 5)  [54BF9703]  (AR v2)
     Copy OK
Track  2
     Filename E:\PT\The Great Guitars - The Great Guitars Live\Disc 1of2\02.Air Mail Special (live).wav
     Peak level 93.3 %
     Extraction speed 4.2 X
     Track quality 100.0 %
     Test CRC 69F8868E
     Copy CRC 69F8868E
     Accurately ripped (confidence 5)  [9735141D]  (AR v2)
     Copy OK
Track  3
     Filename E:\PT\The Great Guitars - The Great Guitars Live\Disc 1of2\03.Body & Soul (live).wav
     Peak level 57.6 %
     Extraction speed 4.6 X
     Track quality 100.0 %
     Test CRC 2F750D62
     Copy CRC 2F750D62
     Accurately ripped (confidence 5)  [B65E81B5]  (AR v2)
     Copy OK
Track  4
     Filename E:\PT\The Great Guitars - The Great Guitars Live\Disc 1of2\04.You Took Advantage of Me (live).wav
     Peak level 74.7 %
     Extraction speed 4.5 X
     Track quality 100.0 %
     Test CRC F1877ABC
     Copy CRC F1877ABC
     Accurately ripped (confidence 5)  [40435563]  (AR v2)
     Copy OK
Track  5
     Filename E:\PT\The Great Guitars - The Great Guitars Live\Disc 1of2\05.So Danco Samba (live).wav
     Peak level 73.6 %
     Extraction speed 5.1 X
     Track quality 100.0 %
     Test CRC D2E14E32
     Copy CRC D2E14E32
     Accurately ripped (confidence 5)  [0FEB5048]  (AR v2)
     Copy OK
Track  6
     Filename E:\PT\The Great Guitars - The Great Guitars Live\Disc 1of2\06.Sheik of Araby (live).wav
     Peak level 93.1 %
     Extraction speed 5.5 X
     Track quality 100.0 %
     Test CRC BD944606
     Copy CRC BD944606
     Accurately ripped (confidence 5)  [184D39FB]  (AR v2)
     Copy OK
Track  7
     Filename E:\PT\The Great Guitars - The Great Guitars Live\Disc 1of2\07.Strighten up & Fly Right (live).wav
     Peak level 69.0 %
     Extraction speed 5.9 X
     Track quality 100.0 %
     Test CRC 506F26E4
     Copy CRC 506F26E4
     Accurately ripped (confidence 5)  [F0ED4780]  (AR v2)
     Copy OK
Track  8
     Filename E:\PT\The Great Guitars - The Great Guitars Live\Disc 1of2\08.Just in Time (live).wav
     Peak level 80.9 %
     Extraction speed 5.9 X
     Track quality 100.0 %
     Test CRC 79878887
     Copy CRC 79878887
     Accurately ripped (confidence 5)  [0816A4D6]  (AR v2)
     Copy OK
Track  9
     Filename E:\PT\The Great Guitars - The Great Guitars Live\Disc 1of2\09.Talk of the Town (live).wav
     Peak level 75.7 %
     Extraction speed 6.5 X
     Track quality 100.0 %
     Test CRC 61DCE265
     Copy CRC 61DCE265
     Accurately ripped (confidence 5)  [5B2D7599]  (AR v2)
     Copy OK
All tracks accurately ripped
No errors occurred
End of status report
---- CUETools DB Plugin V2.1.5
[CTDB TOCID: xwC9lTHvKzWzn5PumKP3JWud4IY-] found
Submit result: already submitted
Track | CTDB Status
  1   | (4/4) Accurately ripped
  2   | (4/4) Accurately ripped
  3   | (4/4) Accurately ripped
  4   | (4/4) Accurately ripped
  5   | (4/4) Accurately ripped
  6   | (4/4) Accurately ripped
  7   | (3/4) Accurately ripped
  8   | (3/4) Accurately ripped
  9   | (3/4) Accurately ripped
==== Log checksum 824D1C686D4FCC5EFF9022B98CD9ADEC6AA5EA73764127EDEC2B3C2682D8DDC7 ====
 
 
Содержание индексной карты (.CUE)
REM GENRE Jazz
REM DATE 1980
REM DISCID 580A6A09
REM COMMENT "ExactAudioCopy v1.0b3"
PERFORMER "Great Guitars"
TITLE "Great Guitars at the Winery"
FILE "01 - Broadway.wav" WAVE
  TRACK 01 AUDIO
    TITLE "Broadway"
    PERFORMER "Great Guitars"
    INDEX 01 00:00:00
FILE "02 - Air Mail Special.wav" WAVE
  TRACK 02 AUDIO
    TITLE "Air Mail Special"
    PERFORMER "Great Guitars"
    INDEX 01 00:00:00
FILE "03 - Body and Soul.wav" WAVE
  TRACK 03 AUDIO
    TITLE "Body and Soul"
    PERFORMER "Great Guitars"
    INDEX 01 00:00:00
FILE "04 - You Took Advantage of Me.wav" WAVE
  TRACK 04 AUDIO
    TITLE "You Took Advantage of Me"
    PERFORMER "Great Guitars"
    INDEX 01 00:00:00
FILE "05 - So Danco Samba.wav" WAVE
  TRACK 05 AUDIO
    TITLE "So Danco Samba"
    PERFORMER "Great Guitars"
    INDEX 01 00:00:00
FILE "06 - Sheik of Araby.wav" WAVE
  TRACK 06 AUDIO
    TITLE "Sheik of Araby"
    PERFORMER "Great Guitars"
    INDEX 01 00:00:00
FILE "07 - Strighten Up and Fly Right.wav" WAVE
  TRACK 07 AUDIO
    TITLE "Strighten Up and Fly Right"
    PERFORMER "Great Guitars"
    INDEX 01 00:00:00
FILE "08 - Just in Time.wav" WAVE
  TRACK 08 AUDIO
    TITLE "Just in Time"
    PERFORMER "Great Guitars"
    INDEX 01 00:00:00
FILE "09 - The Talk of the Town.wav" WAVE
  TRACK 09 AUDIO
    TITLE "The Talk of the Town"
    PERFORMER "Great Guitars"
    INDEX 01 00:00:00
 
 
Отчет CUETools
[CUETools log; Date: 11.12.2013 22:09:46; Version: 2.1.4]
[CTDB TOCID: xwC9lTHvKzWzn5PumKP3JWud4IY-] found.
Track | CTDB Status
  1   | (4/4) Accurately ripped
  2   | (4/4) Accurately ripped
  3   | (4/4) Accurately ripped
  4   | (4/4) Accurately ripped
  5   | (4/4) Accurately ripped
  6   | (4/4) Accurately ripped
  7   | (3/4) Accurately ripped
  8   | (3/4) Accurately ripped
  9   | (3/4) Accurately ripped
[AccurateRip ID: 000ef067-006d0fdd-580a6a09] found.
Track   [  CRC   |   V2   ] Status
 01     [85a68fb3|54bf9703] (05+05/10) Accurately ripped
 02     [7620b2e7|9735141d] (05+05/10) Accurately ripped
 03     [2d21def2|b65e81b5] (05+05/10) Accurately ripped
 04     [baf36ab5|40435563] (05+05/10) Accurately ripped
 05     [984f7d0b|0feb5048] (05+05/10) Accurately ripped
 06     [278a03a9|184d39fb] (05+05/10) Accurately ripped
 07     [37e7c361|f0ed4780] (05+05/10) Accurately ripped
 08     [12b36649|0816a4d6] (05+05/10) Accurately ripped
 09     [d9cc9b56|5b2d7599] (05+05/10) Accurately ripped
Track Peak [ CRC32  ] [W/O NULL] [  LOG   ]
 --   93,3 [742DD565] [D5D1DFF9]
 01   79,2 [FB201AB3] [F6B204D9]   CRC32
 02   93,3 [69F8868E] [A926EBA2]   CRC32
 03   57,6 [2F750D62] [34DC0F9D]   CRC32
 04   74,7 [F1877ABC] [58B2C42D]   CRC32
 05   73,6 [D2E14E32] [9BB2A8D3]   CRC32
 06   93,1 [BD944606] [075E1E34]   CRC32
 07   69,0 [506F26E4] [0AD1B9FE]   CRC32
 08   80,9 [79878887] [AC728A59]   CRC32
 09   75,7 [61DCE265] [F1AAA54F]   CRC32
 
 
CD2 - Great Guitars at Charlie's Georgetown {49:00}
Great Guitars - Great Guitars at Charlie's Georgetown (1982)
01. Where or When (Rodgers-Hart) - 4:37
02. New Orleans (Carmichael) - 6:47
03. When the Saints Go Marching In (Trad.) - 3:14
04. Change Partners (Berlin) - 3:59
05. Pensive (Cohn) - 5:49
06. Opus One (Oliver) - 4:28
07. Old Folks (Hill-Robison) - 4:26
08. Get Happy (Arlen-Koehler) - 5:55
09. Danielle (Cohn) - 3:46
10. Trouble in Mind (Jones) - 5:59
Состав:
Charlie Byrd, Barney Kessel, Herb Ellis - guitar
Joe Byrd - bass
Chuck Redd - drums
Recorded live at Charlie's Georgetown, Washington D.C. in August 1982.
 
 
Лог создания рипа
Exact Audio Copy V1.0 beta 3 from 29. August 2011
EAC extraction logfile from 11. December 2013, 2:58
The Great Guitars / Great Guitars at Charlie's Georgetown
Used drive  : PLEXTOR DVDR   PX-L890SA   Adapter: 0  ID: 0
Read mode               : Secure
Utilize accurate stream : Yes
Defeat audio cache      : Yes
Make use of C2 pointers : No
Read offset correction                      : 6
Overread into Lead-In and Lead-Out          : No
Fill up missing offset samples with silence : Yes
Delete leading and trailing silent blocks   : No
Null samples used in CRC calculations       : Yes
Used interface                              : Native Win32 interface for Win NT & 2000
Gap handling                                : Appended to previous track
Used output format              : User Defined Encoder
Selected bitrate                : 896 kBit/s
Quality                         : High
Add ID3 tag                     : No
Command line compressor         : C:\Program Files (x86)\FLAC\flac.exe
Additional command line options : -8 -V -T "ARTIST=%artist%" -T "TITLE=%title%" -T "ALBUM=%albumtitle%" -T "DATE=%year%" -T "TRACKNUMBER=%tracknr%" -T "GENRE=%genre%" -T "PERFORMER=%albuminterpret%" -T "COMPOSER=%composer%" %haslyrics%--tag-from-file=LYRICS="%lyricsfile%"%haslyrics% -T "ALBUMARTIST=%albumartist%" -T "DISCNUMBER=%cdnumber%" -T "TOTALDISCS=%totalcds%" -T "TOTALTRACKS=%numtracks%" -T "COMMENT=%comment%" %source% -o %dest%
TOC of the extracted CD
     Track |   Start  |  Length  | Start sector | End sector
    ---------------------------------------------------------
        1  |  0:00.00 |  4:37.35 |         0    |    20809
        2  |  4:37.35 |  6:46.52 |     20810    |    51311
        3  | 11:24.12 |  3:13.50 |     51312    |    65836
        4  | 14:37.62 |  3:58.48 |     65837    |    83734
        5  | 18:36.35 |  5:48.57 |     83735    |   109891
        6  | 24:25.17 |  4:27.53 |    109892    |   129969
        7  | 28:52.70 |  4:25.60 |    129970    |   149904
        8  | 33:18.55 |  5:55.12 |    149905    |   176541
        9  | 39:13.67 |  3:45.73 |    176542    |   193489
       10  | 42:59.65 |  5:59.32 |    193490    |   220446
Track  1
     Filename E:\PT\The Great Guitars - The Great Guitars Live\Disc 2of2\01.Where or When.wav
     Pre-gap length  0:00:02.00
     Peak level 90.2 %
     Extraction speed 3.6 X
     Track quality 100.0 %
     Test CRC 760234F2
     Copy CRC 760234F2
     Accurately ripped (confidence 5)  [85FF2ECC]  (AR v2)
     Copy OK
Track  2
     Filename E:\PT\The Great Guitars - The Great Guitars Live\Disc 2of2\02.New Orleans.wav
     Peak level 99.9 %
     Extraction speed 3.8 X
     Track quality 99.9 %
     Test CRC 5D1E7C3C
     Copy CRC 5D1E7C3C
     Accurately ripped (confidence 5)  [1E0B46EF]  (AR v2)
     Copy OK
Track  3
     Filename E:\PT\The Great Guitars - The Great Guitars Live\Disc 2of2\03.When the Saints Go Marching in.wav
     Peak level 99.8 %
     Extraction speed 4.4 X
     Track quality 100.0 %
     Test CRC E1AC2103
     Copy CRC E1AC2103
     Accurately ripped (confidence 5)  [CF282B6E]  (AR v2)
     Copy OK
Track  4
     Filename E:\PT\The Great Guitars - The Great Guitars Live\Disc 2of2\04.Change Partners.wav
     Peak level 75.7 %
     Extraction speed 4.8 X
     Track quality 100.0 %
     Test CRC 748154AC
     Copy CRC 748154AC
     Accurately ripped (confidence 5)  [9D4266C9]  (AR v2)
     Copy OK
Track  5
     Filename E:\PT\The Great Guitars - The Great Guitars Live\Disc 2of2\05.Pensive.wav
     Peak level 77.0 %
     Extraction speed 5.3 X
     Track quality 100.0 %
     Test CRC AC80583B
     Copy CRC AC80583B
     Accurately ripped (confidence 5)  [4EBAB25B]  (AR v2)
     Copy OK
Track  6
     Filename E:\PT\The Great Guitars - The Great Guitars Live\Disc 2of2\06.Opus One.wav
     Peak level 100.0 %
     Extraction speed 5.4 X
     Track quality 100.0 %
     Test CRC 0BD2FCD6
     Copy CRC 0BD2FCD6
     Accurately ripped (confidence 5)  [44A5011F]  (AR v2)
     Copy OK
Track  7
     Filename E:\PT\The Great Guitars - The Great Guitars Live\Disc 2of2\07.Old Folks.wav
     Peak level 72.0 %
     Extraction speed 3.8 X
     Track quality 99.9 %
     Test CRC 323B9607
     Copy CRC 323B9607
     Accurately ripped (confidence 5)  [25A9FE87]  (AR v2)
     Copy OK
Track  8
     Filename E:\PT\The Great Guitars - The Great Guitars Live\Disc 2of2\08.Get Happy.wav
     Peak level 99.8 %
     Extraction speed 3.0 X
     Track quality 99.8 %
     Test CRC 6DEA730B
     Copy CRC 6DEA730B
     Accurately ripped (confidence 5)  [E798D513]  (AR v2)
     Copy OK
Track  9
     Filename E:\PT\The Great Guitars - The Great Guitars Live\Disc 2of2\09.Danielle.wav
     Peak level 63.2 %
     Extraction speed 2.0 X
     Track quality 99.6 %
     Test CRC B659127C
     Copy CRC B659127C
     Accurately ripped (confidence 5)  [C9B34B7B]  (AR v2)
     Copy OK
Track 10
     Filename E:\PT\The Great Guitars - The Great Guitars Live\Disc 2of2\10.Trouble in Mind.wav
     Peak level 100.0 %
     Extraction speed 1.9 X
     Track quality 99.7 %
     Test CRC 6843CF3B
     Copy CRC 6843CF3B
     Accurately ripped (confidence 5)  [C92244BA]  (AR v2)
     Copy OK
All tracks accurately ripped
No errors occurred
End of status report
---- CUETools DB Plugin V2.1.5
[CTDB TOCID: WTxGBcez50oQQHXek6CBPM9tTxA-] found
Submit result: already submitted
Track | CTDB Status
  1   | (4/4) Accurately ripped
  2   | (4/4) Accurately ripped
  3   | (4/4) Accurately ripped
  4   | (4/4) Accurately ripped
  5   | (4/4) Accurately ripped
  6   | (4/4) Accurately ripped
  7   | (4/4) Accurately ripped
  8   | (4/4) Accurately ripped
  9   | (4/4) Accurately ripped
 10   | (4/4) Accurately ripped
==== Log checksum 185E10CE2B19B70AB271FC7D79EE06C8C9520876CA3DCB55E88D62ABC2C7C170 ====
 
 
Содержание индексной карты (.CUE)
REM GENRE Jazz
REM DATE 1982
REM DISCID 8D0B7B0A
REM COMMENT "ExactAudioCopy v1.0b3"
PERFORMER "Great Guitars"
TITLE "Great Guitars at Charlie's Georgetown"
FILE "01 - Where or When.wav" WAVE
  TRACK 01 AUDIO
    TITLE "Where or When"
    PERFORMER "Great Guitars"
    INDEX 01 00:00:00
FILE "02 - New Orleans.wav" WAVE
  TRACK 02 AUDIO
    TITLE "New Orleans"
    PERFORMER "Great Guitars"
    INDEX 01 00:00:00
FILE "03 - When the Saints Go Marching in.wav" WAVE
  TRACK 03 AUDIO
    TITLE "When the Saints Go Marching in"
    PERFORMER "Great Guitars"
    INDEX 01 00:00:00
FILE "04 - Change Partners.wav" WAVE
  TRACK 04 AUDIO
    TITLE "Change Partners"
    PERFORMER "Great Guitars"
    INDEX 01 00:00:00
FILE "05 - Pensive.wav" WAVE
  TRACK 05 AUDIO
    TITLE "Pensive"
    PERFORMER "Great Guitars"
    INDEX 01 00:00:00
FILE "06 - Opus One.wav" WAVE
  TRACK 06 AUDIO
    TITLE "Opus One"
    PERFORMER "Great Guitars"
    INDEX 01 00:00:00
FILE "07 - Old Folks.wav" WAVE
  TRACK 07 AUDIO
    TITLE "Old Folks"
    PERFORMER "Great Guitars"
    INDEX 01 00:00:00
FILE "08 - Get Happy.wav" WAVE
  TRACK 08 AUDIO
    TITLE "Get Happy"
    PERFORMER "Great Guitars"
    INDEX 01 00:00:00
FILE "09 - Danielle.wav" WAVE
  TRACK 09 AUDIO
    TITLE "Danielle"
    PERFORMER "Great Guitars"
    INDEX 01 00:00:00
FILE "10 - Trouble in Mind.wav" WAVE
  TRACK 10 AUDIO
    TITLE "Trouble in Mind"
    PERFORMER "Great Guitars"
    INDEX 01 00:00:00
 
 
Отчет CUETools
[CUETools log; Date: 11.12.2013 22:10:09; Version: 2.1.4]
[CTDB TOCID: WTxGBcez50oQQHXek6CBPM9tTxA-] found.
Track | CTDB Status
  1   | (4/4) Accurately ripped
  2   | (4/4) Accurately ripped
  3   | (4/4) Accurately ripped
  4   | (4/4) Accurately ripped
  5   | (4/4) Accurately ripped
  6   | (4/4) Accurately ripped
  7   | (4/4) Accurately ripped
  8   | (4/4) Accurately ripped
  9   | (4/4) Accurately ripped
 10   | (4/4) Accurately ripped
[AccurateRip ID: 00125714-00926721-8d0b7b0a] found.
Track   [  CRC   |   V2   ] Status
 01     [ffb5cbf7|85ff2ecc] (04+05/11) Accurately ripped
 02     [dbe1f273|1e0b46ef] (05+05/12) Accurately ripped
 03     [79e1cd2a|cf282b6e] (05+05/12) Accurately ripped
 04     [56c2045e|9d4266c9] (05+05/12) Accurately ripped
 05     [f6c40368|4ebab25b] (05+05/12) Accurately ripped
 06     [0572ed7b|44a5011f] (05+05/12) Accurately ripped
 07     [3b460951|25a9fe87] (05+05/12) Accurately ripped
 08     [2ddb896f|e798d513] (05+05/12) Accurately ripped
 09     [1dbdc094|c9b34b7b] (05+05/12) Accurately ripped
 10     [4dcd5243|c92244ba] (05+05/12) Accurately ripped
Offsetted by -2212:
 01     [cd68c800] (02/11) Accurately ripped
 02     [57126cdf] (02/12) Accurately ripped
 03     [e671b812] (02/12) Accurately ripped
 04     [3cb36d0f] (02/12) Accurately ripped
 05     [5086a114] (02/12) Accurately ripped
 06     [a074f82f] (02/12) Accurately ripped
 07     [bcfd0439] (02/12) Accurately ripped
 08     [a3b0c8c0] (02/12) Accurately ripped
 09     [dd1450d5] (02/12) Accurately ripped
 10     [ba045fef] (02/12) Accurately ripped
Track Peak [ CRC32  ] [W/O NULL] [  LOG   ]
 --  100,0 [123A1B37] [DC135EA1]
 01   90,2 [760234F2] [ABEEB86D]   CRC32
 02   99,9 [5D1E7C3C] [9BB6971D]   CRC32
 03   99,8 [E1AC2103] [8B5F3015]   CRC32
 04   75,7 [748154AC] [E8B6CFE9]   CRC32
 05   77,0 [AC80583B] [EF59AF24]   CRC32
 06  100,0 [0BD2FCD6] [B3C7AF22]   CRC32
 07   72,0 [323B9607] [F702FB9F]   CRC32
 08   99,8 [6DEA730B] [FEE15353]   CRC32
 09   63,2 [B659127C] [12BBABD8]   CRC32
 10  100,0 [6843CF3B] [ED233192]   CRC32
 
 
Review by Ken Dryden
Herb Ellis, Barney Kessel, and Charlie Byrd made five recordings under the banner Great Guitars for Concord between 1976 and 1982; this two-CD set combines both of their concert performances. With bassist Joe Byrd and either Jimmie Smith or Chuck Redd on drums, the guitarists complement one another's playing throughout both shows, with the two former Oscar Peterson sidemen on electric guitar and Byrd sticking to acoustic guitar. They primarily stick to standards of the 1930s, 1940s, and 1950s during the 1980 set taped at the Paul Masson Mountain Winery. Byrd, best known for helping to launch the bossa nova craze during the early '60s, shines in the extended workout of Antonio Carlos Jobim's "So Danço Samba" and a solo performance of "You Took Advantage of Me." Ellis and Kessel are unaccompanied in an introspective take of "Body and Soul." The second disc comes from a 1982 concert at Charlie's Georgetown in Washington, D.C., and features a more wide-ranging program. Starting with a breezy take of "Where or When," the guitarists are in top form. Their very deliberate introduction to Hoagy Carmichael's "New Orleans" milks the song's lyricism for all it is worth, though they cut loose into a swinging setting, with Ellis providing a bit of percussion on his strings. Charlie Byrd's brisk bossa nova scoring of the Dixieland favorite "When the Saints Go Marching In" proves to be very refreshing. Two pieces by Al Cohn add a bit of variety, the well-named "Pensive" and the ballad "Danielle," the latter in a bossa nova setting. They wrap their final recording together with a superb interpretation of Richard Jones' blues "Trouble in Mind." The single-CD price for this twin-disc compilation certainly adds to its appeal.
По всем вопросам пишите личное сообщение пользователю M0p94ok.
02:49
401
Нет комментариев. Ваш будет первым!