Вы используете незарегистрированную версию компонента "Вкладки"!

Поиск

(Bop) [CD] Dexter Gordon - Dexter Rides Again (1945-1947) - 1992 (Japan Edition), FLAC (tracks+.cue), lossless

(Bop) [CD] Dexter Gordon - Dexter Rides Again (1945-1947) - 1992 (Japan Edition), FLAC (tracks+.cue), lossless
Треклист:
Dexter Gordon - Dexter Rides Again
Жанр: Bop
Носитель: CD
Страна-производитель диска (релиза): Япония
Год издания: 1992
Издатель (лейбл): Savoy Jazz/Denon/Nippon Columbia
Номер по каталогу: SV-0120
Страна исполнителя (группы): США
Аудиокодек: FLAC (*.flac)
Тип рипа: tracks+.cue
Битрейт аудио: lossless
Продолжительность: 36:58
Источник (релизер): BeyondNBack (what)
Наличие сканов в содержимом раздачи: сетевые
Треклист:
01. Dexter's Riff (Gordon) - 2:47
02. Settin' the Pace - Part 1 & 2 (Gordon) - 5:56
03. So Easy (Gordon) - 3:43
04. Long Tall Dexter (Gordon) - 3:05
05. Dexter Rides Again (Gordon-Powell) - 3:18
06. I Can't Escape from You (Robin-Whiting) - 3:18
07. Dexter Digs In (Gordon) - 3:00
08. Dexter's Minor Mad (Gordon) - 2:45
09. Blow Mr. Dexter (Gordon) - 3:00
10. Dexter's Deck (Gordon) - 2:58
11. Dexter's Cuttin' Out (Gordon) - 3:08
 
Лог создания рипа
Exact Audio Copy V1.3 from 2. September 2016
EAC extraction logfile from 8. November 2016, 13:54
Dexter Gordon / Dexter Rides Again
Used drive : hp DVDRW DU8A6SH Adapter: 1 ID: 0
Read mode : Secure
Utilize accurate stream : Yes
Defeat audio cache : Yes
Make use of C2 pointers : No
Read offset correction : 6
Overread into Lead-In and Lead-Out : No
Fill up missing offset samples with silence : Yes
Delete leading and trailing silent blocks : No
Null samples used in CRC calculations : Yes
Used interface : Native Win32 interface for Win NT & 2000
Gap handling : Appended to previous track
Used output format : User Defined Encoder
Selected bitrate : 1024 kBit/s
Quality : High
Add ID3 tag : No
Command line compressor : C:\Program Files (x86)\Exact Audio Copy\FLAC\FLAC.EXE
Additional command line options : -8 -e -V -T "ARTIST=%artist%" -T "TITLE=%title%" -T "ALBUM=%albumtitle%" -T "DATE=%year%" -T "TRACKNUMBER=%tracknr%" -T "GENRE=%genre%" -T "PERFORMER=%albuminterpret%" -T "COMPOSER=%composer%" %haslyrics%--tag-from-file=LYRICS="%lyricsfile%"%haslyrics% -T "ALBUMARTIST=%albumartist%" -T "DISCNUMBER=%cdnumber%" -T "TOTALDISCS=%totalcds%" -T "TOTALTRACKS=%numtracks%" -T "COMMENT=%comment%" %source% -o %dest%
TOC of the extracted CD
Track | Start | Length | Start sector | End sector
---------------------------------------------------------
1 | 0:00.00 | 2:46.50 | 0 | 12499
2 | 2:46.50 | 5:55.57 | 12500 | 39181
3 | 8:42.32 | 3:43.28 | 39182 | 55934
4 | 12:25.60 | 3:05.17 | 55935 | 69826
5 | 15:31.02 | 3:18.08 | 69827 | 84684
6 | 18:49.10 | 3:17.50 | 84685 | 99509
7 | 22:06.60 | 3:00.10 | 99510 | 113019
8 | 25:06.70 | 2:45.15 | 113020 | 125409
9 | 27:52.10 | 3:00.22 | 125410 | 138931
10 | 30:52.32 | 2:58.30 | 138932 | 152311
11 | 33:50.62 | 3:08.33 | 152312 | 166444
Track 1
Filename C:\Users\Teacher\Desktop\Dexter Gordon - 1955 - Dexter Rides Again [CD FLAC] {1992 Savoy Jazz SV-0120}\01 - Dexter's Riff.wav
Pre-gap length 0:00:02.00
Peak level 92.1 %
Extraction speed 2.1 X
Track quality 99.9 %
Test CRC 70767C5F
Copy CRC 70767C5F
Accurately ripped (confidence 6) [44313906] (AR v2)
Copy OK
Track 2
Filename C:\Users\Teacher\Desktop\Dexter Gordon - 1955 - Dexter Rides Again [CD FLAC] {1992 Savoy Jazz SV-0120}\02 - Settin' The Pace - Part 1 & 2.wav
Pre-gap length 0:00:03.02
Peak level 88.1 %
Extraction speed 3.2 X
Track quality 100.0 %
Test CRC 497914A2
Copy CRC 497914A2
Accurately ripped (confidence 6) [5F206C6C] (AR v2)
Copy OK
Track 3
Filename C:\Users\Teacher\Desktop\Dexter Gordon - 1955 - Dexter Rides Again [CD FLAC] {1992 Savoy Jazz SV-0120}\03 - So Easy.wav
Pre-gap length 0:00:02.96
Peak level 92.5 %
Extraction speed 3.3 X
Track quality 100.0 %
Test CRC 8B3BDF9F
Copy CRC 8B3BDF9F
Accurately ripped (confidence 6) [91ECBBD7] (AR v2)
Copy OK
Track 4
Filename C:\Users\Teacher\Desktop\Dexter Gordon - 1955 - Dexter Rides Again [CD FLAC] {1992 Savoy Jazz SV-0120}\04 - Long Tall Dexter.wav
Pre-gap length 0:00:03.29
Peak level 100.0 %
Extraction speed 2.8 X
Track quality 99.9 %
Test CRC 33A8A533
Copy CRC 33A8A533
Accurately ripped (confidence 6) [4C41F703] (AR v2)
Copy OK
Track 5
Filename C:\Users\Teacher\Desktop\Dexter Gordon - 1955 - Dexter Rides Again [CD FLAC] {1992 Savoy Jazz SV-0120}\05 - Dexter Rides Again.wav
Pre-gap length 0:00:03.21
Peak level 99.9 %
Extraction speed 3.6 X
Track quality 100.0 %
Test CRC F13EEF8F
Copy CRC F13EEF8F
Accurately ripped (confidence 6) [CB110B02] (AR v2)
Copy OK
Track 6
Filename C:\Users\Teacher\Desktop\Dexter Gordon - 1955 - Dexter Rides Again [CD FLAC] {1992 Savoy Jazz SV-0120}\06 - I Can't Escape from You.wav
Pre-gap length 0:00:02.96
Peak level 97.9 %
Extraction speed 3.7 X
Track quality 100.0 %
Test CRC A61C3509
Copy CRC A61C3509
Accurately ripped (confidence 6) [14A34E96] (AR v2)
Copy OK
Track 7
Filename C:\Users\Teacher\Desktop\Dexter Gordon - 1955 - Dexter Rides Again [CD FLAC] {1992 Savoy Jazz SV-0120}\07 - Dexter Digs In.wav
Pre-gap length 0:00:02.96
Peak level 99.9 %
Extraction speed 3.8 X
Track quality 100.0 %
Test CRC 5DA4DAF5
Copy CRC 5DA4DAF5
Accurately ripped (confidence 6) [1AB4D8DC] (AR v2)
Copy OK
Track 8
Filename C:\Users\Teacher\Desktop\Dexter Gordon - 1955 - Dexter Rides Again [CD FLAC] {1992 Savoy Jazz SV-0120}\08 - Dexter's Minor Mad.wav
Pre-gap length 0:00:03.16
Peak level 87.5 %
Extraction speed 3.9 X
Track quality 100.0 %
Test CRC D4BE74C0
Copy CRC D4BE74C0
Accurately ripped (confidence 6) [A13A0142] (AR v2)
Copy OK
Track 9
Filename C:\Users\Teacher\Desktop\Dexter Gordon - 1955 - Dexter Rides Again [CD FLAC] {1992 Savoy Jazz SV-0120}\09 - Blow Mr. Dexter.wav
Pre-gap length 0:00:02.86
Peak level 85.5 %
Extraction speed 4.0 X
Track quality 100.0 %
Test CRC CECF5B4C
Copy CRC CECF5B4C
Accurately ripped (confidence 6) [989BB4CE] (AR v2)
Copy OK
Track 10
Filename C:\Users\Teacher\Desktop\Dexter Gordon - 1955 - Dexter Rides Again [CD FLAC] {1992 Savoy Jazz SV-0120}\10 - Dexter's Deck.wav
Pre-gap length 0:00:02.86
Peak level 91.5 %
Extraction speed 4.2 X
Track quality 100.0 %
Test CRC F6DF16C7
Copy CRC F6DF16C7
Accurately ripped (confidence 6) [D9E961C9] (AR v2)
Copy OK
Track 11
Filename C:\Users\Teacher\Desktop\Dexter Gordon - 1955 - Dexter Rides Again [CD FLAC] {1992 Savoy Jazz SV-0120}\11 - Dexter's Cuttin' Out.wav
Pre-gap length 0:00:02.69
Peak level 97.6 %
Extraction speed 4.3 X
Track quality 100.0 %
Test CRC 9C21C739
Copy CRC 9C21C739
Accurately ripped (confidence 6) [3242B720] (AR v2)
Copy OK
All tracks accurately ripped
No errors occurred
End of status report
---- CUETools DB Plugin V2.1.6
[CTDB TOCID: tslbiRsKgmSscrrzOTdu0AlB.bA-] found
Submit result: tslbiRsKgmSscrrzOTdu0AlB.bA- has been confirmed
Track | CTDB Status
1 | (10/10) Accurately ripped
2 | (10/10) Accurately ripped
3 | (10/10) Accurately ripped
4 | (10/10) Accurately ripped
5 | (10/10) Accurately ripped
6 | (10/10) Accurately ripped
7 | (10/10) Accurately ripped
8 | (10/10) Accurately ripped
9 | (10/10) Accurately ripped
10 | (10/10) Accurately ripped
11 | (10/10) Accurately ripped
==== Log checksum 8334CDC4A18AF94B82658FDE0428B85681CB8F56CC90FBE5DC400C7B6BABB813 ====
 
Содержание индексной карты (.CUE)
REM GENRE Jazz
REM DATE 1947
REM DISCID 8A08AB0B
REM COMMENT "ExactAudioCopy v1.3"
PERFORMER "Dexter Gordon"
TITLE "Dexter Rides Again"
FILE "01 - Dexter's Riff.wav" WAVE
TRACK 01 AUDIO
TITLE "Dexter's Riff"
PERFORMER "Dexter Gordon"
ISRC JPCO04700280
INDEX 01 00:00:00
TRACK 02 AUDIO
TITLE "Settin' the Pace - Part 1 & 2"
PERFORMER "Dexter Gordon"
ISRC JPCO04700290
INDEX 00 02:43:48
FILE "02 - Settin' the Pace - Part 1 & 2.wav" WAVE
INDEX 01 00:00:00
TRACK 03 AUDIO
TITLE "So Easy"
PERFORMER "Dexter Gordon"
ISRC JPCO04700300
INDEX 00 05:52:60
FILE "03 - So Easy.wav" WAVE
INDEX 01 00:00:00
TRACK 04 AUDIO
TITLE "Long Tall Dexter"
PERFORMER "Dexter Gordon"
ISRC JPCO04700310
INDEX 00 03:40:06
FILE "04 - Long Tall Dexter.wav" WAVE
INDEX 01 00:00:00
TRACK 05 AUDIO
TITLE "Dexter Rides Again"
PERFORMER "Dexter Gordon"
ISRC JPCO04700320
INDEX 00 03:02:01
FILE "05 - Dexter Rides Again.wav" WAVE
INDEX 01 00:00:00
TRACK 06 AUDIO
TITLE "I Can't Escape from You"
PERFORMER "Dexter Gordon"
ISRC JPCO04700330
INDEX 00 03:15:11
FILE "06 - I Can't Escape from You.wav" WAVE
INDEX 01 00:00:00
TRACK 07 AUDIO
TITLE "Dexter Digs In"
PERFORMER "Dexter Gordon"
ISRC JPCO04700340
INDEX 00 03:14:53
FILE "07 - Dexter Digs In.wav" WAVE
INDEX 01 00:00:00
TRACK 08 AUDIO
TITLE "Dexter's Minor Mad"
PERFORMER "Dexter Gordon"
ISRC JPCO04700350
INDEX 00 02:56:73
FILE "08 - Dexter's Minor Mad.wav" WAVE
INDEX 01 00:00:00
TRACK 09 AUDIO
TITLE "Blow Mr. Dexter"
PERFORMER "Dexter Gordon"
ISRC JPCO04700360
INDEX 00 02:42:25
FILE "09 - Blow Mr. Dexter.wav" WAVE
INDEX 01 00:00:00
TRACK 10 AUDIO
TITLE "Dexter's Deck"
PERFORMER "Dexter Gordon"
ISRC JPCO04700370
INDEX 00 02:57:32
FILE "10 - Dexter's Deck.wav" WAVE
INDEX 01 00:00:00
TRACK 11 AUDIO
TITLE "Dexter's Cuttin' Out"
PERFORMER "Dexter Gordon"
ISRC JPCO04700380
INDEX 00 02:55:53
FILE "11 - Dexter's Cuttin' Out.wav" WAVE
INDEX 01 00:00:00
 
Отчет CUETools
[CUETools log; Date: 11.11.2016 2:09:02; Version: 2.1.5]
[CTDB TOCID: tslbiRsKgmSscrrzOTdu0AlB.bA-] found.
Track | CTDB Status
1 | (11/11) Accurately ripped
2 | (11/11) Accurately ripped
3 | (11/11) Accurately ripped
4 | (11/11) Accurately ripped
5 | (11/11) Accurately ripped
6 | (11/11) Accurately ripped
7 | (11/11) Accurately ripped
8 | (11/11) Accurately ripped
9 | (11/11) Accurately ripped
10 | (11/11) Accurately ripped
11 | (11/11) Accurately ripped
[AccurateRip ID: 001023de-00898f04-8a08ab0b] found.
Track [ CRC | V2 ] Status
01 [04ab7a95|44313906] (02+06/12) Accurately ripped
02 [f3fc1250|5f206c6c] (02+06/12) Accurately ripped
03 [ef1f5ad9|91ecbbd7] (02+06/12) Accurately ripped
04 [0d2686fe|4c41f703] (02+06/12) Accurately ripped
05 [07abc4f5|cb110b02] (02+06/12) Accurately ripped
06 [47f66d2b|14a34e96] (02+06/12) Accurately ripped
07 [c1f95b81|1ab4d8dc] (02+06/12) Accurately ripped
08 [c46653f6|a13a0142] (02+06/12) Accurately ripped
09 [94a28cd3|989bb4ce] (02+06/12) Accurately ripped
10 [ebe252f4|d9e961c9] (02+06/12) Accurately ripped
11 [6cba39a0|3242b720] (02+06/12) Accurately ripped
Offsetted by -905:
01 [2a7e5c4d] (02/12) Accurately ripped
02 [e294c8ba] (02/12) Accurately ripped
03 [2a5b304e] (02/12) Accurately ripped
04 [f14e97fb] (02/12) Accurately ripped
05 [e99d152a] (02/12) Accurately ripped
06 [f0670484] (02/12) Accurately ripped
07 [7f625477] (02/12) Accurately ripped
08 [875c146d] (02/12) Accurately ripped
09 [38e9c683] (02/12) Accurately ripped
10 [4b045939] (02/12) Accurately ripped
11 [f3145c44] (02/12) Accurately ripped
Offsetted by -681:
01 [86b4e47c] (00/12) No match (V2 was not tested)
02 [aaa8a460] (00/12) No match (V2 was not tested)
03 [532e3b8f] (00/12) No match (V2 was not tested)
04 [c06ccf44] (00/12) No match (V2 was not tested)
05 [79d13543] (00/12) No match (V2 was not tested)
06 [f4ad0ebd] (00/12) No match (V2 was not tested)
07 [fc15296c] (00/12) No match (V2 was not tested)
08 [107d1757] (00/12) No match (V2 was not tested)
09 [bc66b940] (00/12) No match (V2 was not tested)
10 [825171a1] (00/12) No match (V2 was not tested)
11 [21374a0d] (00/12) No match (V2 was not tested)
Track Peak [ CRC32 ] [W/O NULL] [ LOG ]
-- 100,0 [5ADD541E] [80A92403]
01 92,1 [70767C5F] [F5C4E451] CRC32
02 88,1 [497914A2] [DB387757] CRC32
03 92,5 [8B3BDF9F] [331FD25B] CRC32
04 100,0 [33A8A533] [F6A8CBEA] CRC32
05 99,9 [F13EEF8F] [67639D71] CRC32
06 97,9 [A61C3509] [3CD98959] CRC32
07 99,9 [5DA4DAF5] [F46C6AEE] CRC32
08 87,5 [D4BE74C0] [5C8615B2] CRC32
09 85,5 [CECF5B4C] [1D03A86D] CRC32
10 91,5 [F6DF16C7] [FAE03DAF] CRC32
11 97,6 [9C21C739] [6C84BB73] CRC32
 
AllMusic Review by Stephen Cook
Taken from three separate sessions from 1945-'47, Dexter Rides Again showcases prime bebop sides Gordon cut for Savoy. His unique adaptation of Charlie Parker's alto conception to the tenor saxophone is displayed throughout, revealing a mix of fluid, hard-toned lines and a vibrato-heavy and vaporous ballad sound. And while Gordon's ballad mastery would come to the fore on his come-back albums for Blue Note in the '60s, the tenor saxophonist primarily sticks to up-tempo material here, a standard for most bebop sets. Abetted by a collective cast including the fine, yet rarely heard trumpeter Leonard Hawkins, baritone saxophonist Leo Parker, pianists Tadd Dameron and Bud Powell, and drummers Max Roach and Art Blakey, Gordon is in top form on a typical collection of self-penned, utility tunes, dispensing of involved head statements in favor of solo space. Standouts include "Dexter's Deck," the lone ballad "I Can't Escape From You," and the jam session number "Settin' The Pace" (Gordon recorded many extended cuts like this with fellow bebop tenor star Wardell Gray, and here teams up with Leo Parker for something like a baritone and tenor cutting contest). For those interested in where elements of both Sonny Rollins and John Coltrane's distinct style came from, check out these fine Gordon sides; besides the history lesson on wax, there's a consistent run of top-notch bebop sides to enjoy. For completists, these tracks, plus alternate takes and an excellent session featuring Fats Navarro, are included on Denon's Savoy reissue package, Settin' the Pace.
 
Состав
Dexter Gordon - tenor saxophone
with
#1-3:
Leo Parker - baritone saxophone
Tadd Dameron - piano
Curly Russell - bass
Art Blakey - drums
Recorded on December 11, 1947.
#4-7:
Leonard Hawkins - trumpet
Bud Powell - piano
Curly Russell - bass
Max Roach - drums
Recorded on January 29, 1946.
#8-11:
Sadik Hakim - piano
Gene Ramey - bass
Ed Nicholson - drums
Recorded on October 30, 1945.
Any questions - support@pro-jazz.com. Есть вопросы - support@pro-jazz.com
23:07
213
Нет комментариев. Ваш будет первым!