Поиск

(Bop) [CD] Bobby Timmons - In Person (Japan CD) - 1991 (1961), FLAC (image+.cue), lossless

(Bop) [CD] Bobby Timmons - In Person (Japan CD) - 1991 (1961), FLAC (image+.cue), lossless
Треклист:
Bobby Timmons / In Person (Japan CD)
Жанр: Bop
Носитель: CD
Страна-производитель диска (релиза): Japan
Год издания: 1991 (1961)
Издатель (лейбл): Riverside
Номер по каталогу: VICJ 23734
Страна исполнителя (группы): USA
Аудиокодек: FLAC (*.flac)
Тип рипа: image+.cue
Битрейт аудио: lossless
Продолжительность: 52:16
Источник (релизер): собственный рип
Наличие сканов в содержимом раздачи: да
Треклист:
1."Autumn Leaves" - 7:57
2. "So Tired" - 6:24
3. "Goodbye" - 4:46
4. "Dat Dere (Theme)" - 0:56
5. "They Didn't Believe Me" - 6:48
6. "Dat Dere" (Full-length) - 4:31
7. "Popsy" - 6:12
8. "I Didn't Know What Time It Was" - 8:14
9. "Softly, As in a Morning Sunrise" - 5:30
10. "Dat Dere (Theme)" - 0:56
 
Лог создания рипа
Exact Audio Copy V1.0 beta 6 from 9. April 2015
Отчёт EAC об извлечении, выполненном 6. июня 2017, 21:01
The Bobby Timmons Trio / In Person: Recorded "Live" at the Village Vanguard
Дисковод: MATSHITADVD-RAM UJ8B1AS   Adapter: 1  ID: 0
Режим чтения                 : Достоверность
Использование точного потока : Да
Отключение кэша аудио        : Да
Использование указателей C2  : Нет
Коррекция смещения при чтении                     : 6
Способность читать области Lead-in и Lead-out     : Нет
Заполнение пропущенных сэмплов тишиной            : Да
Удаление блоков с тишиной в начале и конце        : Нет
При вычислениях CRC использовались нулевые сэмплы : Да
Интерфейс                                         : Встроенный Win32-интерфейс для Win NT/2000
Выходной формат          : Пользовательский кодировщик
Выбранный битрейт        : 128 kBit/s
Качество                 : Высокий
Добавление ID3-тега      : Нет
Утилита сжатия           : C:\Program Files (x86)\Exact Audio Copy\Flac\flac.exe
Дополнительные параметры : -V -8 -T "Date=%year%" -T "Genre=%genre%" %source%
TOC извлечённого CD
     Трек |   Старт  | Длительность | Начальный сектор | Конечный сектор
    ---------------------------------------------------------------------
       1  |  0:00.37 |    7:58.15   |          37      |      35901
       2  |  7:58.52 |    6:24.35   |       35902      |      64736
       3  | 14:23.12 |    4:46.38   |       64737      |      86224
       4  | 19:09.50 |    0:56.25   |       86225      |      90449
       5  | 20:06.00 |    6:48.35   |       90450      |     121084
       6  | 26:54.35 |    4:31.15   |      121085      |     141424
       7  | 31:25.50 |    6:12.40   |      141425      |     169364
       8  | 37:38.15 |    8:14.05   |      169365      |     206419
       9  | 45:52.20 |    5:31.02   |      206420      |     231246
      10  | 51:23.22 |    0:57.15   |      231247      |     235536
Характеристики диапазона извлечения и сообщения об ошибках
Выбранный диапазон
     Имя файла C:\Users\Alex\Downloads\The Bobby Timmons Trio - In Person- Recorded ''Live'' at the Village Vanguard\The Bobby Timmons Trio - In Person- Recorded ''Live'' at the Village Vanguard.wav
     Пиковый уровень 74.4 %
     Скорость извлечения 2.8 X
     Качество диапазона 100.0 %
     CRC теста FF87E247
     CRC копии FF87E247
     Копирование... OK
Ошибок не произошло
AccurateRip: сводка
Трек  1  отсутствует в базе данных
Трек  2  отсутствует в базе данных
Трек  3  отсутствует в базе данных
Трек  4  отсутствует в базе данных
Трек  5  отсутствует в базе данных
Трек  6  отсутствует в базе данных
Трек  7  отсутствует в базе данных
Трек  8  отсутствует в базе данных
Трек  9  отсутствует в базе данных
Трек 10  отсутствует в базе данных
Ни одного трека нет в базе AccurateRip
Конец отчёта
==== Контрольная сумма отчёта E61907E67D692AB41A989AD543300C376665313276E314EFC1A56447E5C72901 ====
По всем вопросам пишите личное сообщение пользователю M0p94ok.
02:44
341
Нет комментариев. Ваш будет первым!